Loading...
Error

Скачать Аббатство Даунтон / Downton Abbey (сезон 04 + Рождественский спецвыпуск) (Павел Дежин) [2013, драма, исторический, HDRip] [MVO (BaibaKo)] торрент без регистрации

 
Статистика раздачи
Размер:  5,76 GB   |    Скачан:  5327 раз
Сидов:  1  [  0 KB/s  ]  
 
Автор Сообщение

МихаНЕзатор

[] 

Информация о фильме:
Название: Аббатство Даунтон
Оригинальное название: Downton Abbey
Год выхода: 2013
Жанр: драма, исторический
Режиссер: Брайан Персивал, Энди Годдар, Брайан Келли и др.

В ролях: Мишель Докери, Дэн Стивенс, Хью Бонневилль, Элизабет МакГоверн, Мэгги Смит, Брендан Койл, Джоанн Фроггатт, Лаура Кармайкл, Джессика Браун-Финдли, Роб Джеймс-Колльер.


Описание фильма:
1922 год. Продолжение рассказа о жизни семьи Кроули и их придворных слуг. Снова время перемен, позади - бесконечные войны и смутные дни, а впереди новое будущее, надежда на полное восстановление династии.

Страна: Великобритания
Продолжительность: ~ 01:00:00 серия
Перевод: Профессиональный (многоголосый, закадровый) - BaibaKo



Информация о файле:
Кодек: XviD
Формат: AVI
Качество: HDRip
Видео: ~ 1350 kbps, 720x400, 25 fps
Аудио RUS: mp3, 48.0 KHz, 2 ch, 128 kbps
Аудио ENG: mp3, 48.0 KHz, 2 ch, 128 kbps
Субтитры: нет

АНОНСЫ ПОПУЛЯРНЫХ РАЗДАЧ


29.09.2014 г. торент обновлён, добавлена 10-я серия!
Общее
Полное имя : D:Аббатство Даунтон (сезон 4) Downton Abbey (2013) WEB-DLRip - BaibaKoDownton.Abbey.s04e01.WEB-DLRip.XviD.Rus.Eng.BaibaKo.tv.avi
Формат : AVI
Формат/Информация : Audio Video Interleave
Размер файла : 965 Мбайт
Продолжительность : 1 ч. 9 м.
Общий поток : 1948 Кбит/сек
Программа кодирования : VirtualDubMod 1.5.10.2 (build 2542/release)
Библиотека кодирования : VirtualDubMod build 2542/release

Видео
Идентификатор : 0
Формат : MPEG-4 Visual
Профиль формата : Advanced Simple@L5
Параметр BVOP формата : 2
Параметр QPel формата : Нет
Параметр GMC формата : Без точки перехода
Параметр матрицы формата : Default (H.263)
Идентификатор кодека : XVID
Идентификатор кодека/Подсказка : XviD
Продолжительность : 1 ч. 9 м.
Битрейт : 1550 Кбит/сек
Ширина : 720 пикселей
Высота : 400 пикселей
Соотношение сторон : 16:9
Частота кадров : 23,976 кадра/сек
Цветовое пространство : YUV
Субдискретизация насыщенности : 4:2:0
Битовая глубина : 8 бит
Тип развёртки : Прогрессивная
Метод сжатия : С потерями
Бит/(Пиксели*Кадры) : 0.224
Размер потока : 768 Мбайт (80%)
Библиотека кодирования : XviD 1.2.1 (UTC 2008-12-04)

Аудио #1
Идентификатор : 1
Формат : MPEG Audio
Версия формата : Version 1
Профиль формата : Layer 3
Режим : Joint stereo
Расширение режима : MS Stereo
Идентификатор кодека : 55
Идентификатор кодека/Подсказка : MP3
Продолжительность : 1 ч. 9 м.
Вид битрейта : Постоянный
Битрейт : 192 Кбит/сек
Каналы : 2 канала
Частота : 48,0 КГц
Метод сжатия : С потерями
Размер потока : 95,2 Мбайт (10%)
Выравнивание : Соединение по промежуткам
Продолжительность промежутка : 42 мс. (1,00 видеокадр)
Время предзагрузки промежутка : 504 мс.
Библиотека кодирования : LAME3.99r
Настройки программы : -m j -V 4 -q 2 -lowpass 18.6 -b 192

Аудио #2
Идентификатор : 2
Формат : MPEG Audio
Версия формата : Version 1
Профиль формата : Layer 3
Режим : Joint stereo
Идентификатор кодека : 55
Идентификатор кодека/Подсказка : MP3
Продолжительность : 1 ч. 9 м.
Вид битрейта : Постоянный
Битрейт : 192 Кбит/сек
Каналы : 2 канала
Частота : 48,0 КГц
Метод сжатия : С потерями
Размер потока : 95,2 Мбайт (10%)
Выравнивание : Соединение по промежуткам
Продолжительность промежутка : 42 мс. (1,00 видеокадр)
Время предзагрузки промежутка : 504 мс.
Библиотека кодирования : LAME3.99r
Настройки программы : -m j -V 4 -q 2 -lowpass 18.6 -b 192



Скачать Аббатство.Даунтон.Downton.Abbey.(сезон.04.+.Рождественский.спецвыпуск).(Павел.Дежин).[2013.драма.исторический.HDRip].[MVO.(BaibaKo)].torrent без регистрации
Золото ЗОЛОТАЯ РАЗДАЧА! СКАЧАННОЕ НЕ ЗАСЧИТЫВАЕТСЯ! Золото
Дата: Зарегистрирован   [ Тип: внутренний ] Как тут cкачать?
MAGNET ссылка
MAGNET ссылка


Скачать .torrent

30 KB

Статус: проверено DHT
Скачан: торрент - 5327 раз, раздача полностью - 196 раз
Размер: 5,76 GB
Оценка:  - (Голосов: 0)
Поблагодарили: 5
Поделиться ссылкой на эту раздачу с друзьями:
В контактеFacebookОдноклассникиTwitterLivejournalМой МирLiveinternet
 

 

МихаНЕзатор

[] 

Раздача обновлена.
 
Показать сообщения:    


Вы не можете начинать темы
Вы не можете отвечать на сообщения
Вы не можете редактировать свои сообщения
Вы не можете удалять свои сообщения
Вы не можете голосовать в опросах
Вы не можете прикреплять файлы к сообщениям
Вы можете скачивать файлы