Loading...
Error

Скачать Агенты Щ.И.Т. / Agents of S.H.I.E.L.D. (сезон 01) (Дэвид Стрейтон, Джосс Уидон) [2013-2014, фантастика, боевик, драма, WEB-DL] [MVO (LostFilm)]+[Eng] торрент без регистрации

 
Статистика раздачи
Размер:  8,89 GB   |    Скачан:  3962 раза
Сидов:  48  [  0 KB/s  ]   Личеров:  14  [  0 KB/s  ]  
 
Автор Сообщение

МихаНЕзатор

[] 

Агенты Щ.И.Т. / Agents of S.H.I.E.L.D.


Год выпуска: 2013
Выпущено: США / Marvel Television
Жанр: фантастика, боевик, драма
Продолжительность: 00:44:04
Перевод: 1)Профессиональный (многоголосый закадровый) LostFilm
Субтитры: нет
Режиссёр: Дэвид Стрейтон / David Straiton, Джосс Уидон / Joss Whedon

В ролях: Кларк Грегг (Phil Coulson), Минг-На (Melinda May), Бретт Далтон (Grant Ward), Хлоя Беннет (Skye), Йен де Кестекер (Leo Fitz), Элизабет Хенстридж (Jemma Simmons), Рон Гласс (Dr. Streiten), Шеннон Лучио (Debbie), Дж. Аугуст Ричардс (Mike Peterson), Коби Смолдерс (Maria Hill), Даг Симпсон (FBI Agent)

Описание: Действия сериала разворачиваются после событий фильма «Мстители». Агент Фил Колсон возвращается в правоохранительную организацию под названием Щ. И. Т., собрав небольшую команду профессионалов, он начинает работу над новыми делами, которые порой бывают очень странными.




Тип релиза: WEB-DLRip [Marvels.Agents.of.S.H.I.E.L.D.S01E01.1080p.WEB-DL.DD5.1.H.264-PublicHD]
Контейнер: AVI
Видео: 658x368 (1.76:1), 23.976 fps, XviD build 73 ~1007 kbps avg, 0.17 bit/pixel
Аудио #1: 48 kHz, MP3, 2/0 (L,R) ch, ~128.00 kbps avg (RUS) LostFilm
Аудио #2: 48 kHz,MP3, 2/0 (L,R) ch, ~128.00 kbps avg (ENG)

АНОНСЫ ПОПУЛЯРНЫХ РАЗДАЧ


12.06.2014 г. торент обновлён, добавлена 20-22 серия!

Код:


General
Complete name                       : Щ.И.Т S01E01.avi
Format                              : AVI
Format/Info                         : Audio Video Interleave
File size                           : 444 MiB
Duration                            : 44mn 4s
Overall bit rate                    : 1 409 Kbps
Writing application                 : VirtualDubMod 1.5.10.3 | www.virtualdub-fr.org || (build 2550/release)
Writing library                     : VirtualDubMod build 2550/release

Video
ID                                  : 0
Format                              : MPEG-4 Visual
Format profile                      : Advanced Simple@L5
Format settings, BVOP               : 1
Format settings, QPel               : No
Format settings, GMC                : No warppoints
Format settings, Matrix             : Custom
Codec ID                            : XVID
Codec ID/Hint                       : XviD
Duration                            : 44mn 4s
Bit rate                            : 1 007 Kbps
Width                               : 656 pixels
Height                              : 368 pixels
Display aspect ratio                : 16:9
Frame rate                          : 23.976 fps
Color space                         : YUV
Chroma subsampling                  : 4:2:0
Bit depth                           : 8 bits
Scan type                           : Progressive
Compression mode                    : Lossy
Bits/(Pixel*Frame)                  : 0.174
Stream size                         : 317 MiB (71%)
Writing library                     : XviD 73

Audio #1
ID                                  : 1
Format                              : MPEG Audio
Format version                      : Version 1
Format profile                      : Layer 3
Codec ID                            : 55
Codec ID/Hint                       : MP3
Duration                            : 44mn 4s
Bit rate mode                       : Constant
Bit rate                            : 128 Kbps
Channel(s)                          : 2 channels
Sampling rate                       : 48.0 KHz
Compression mode                    : Lossy
Stream size                         : 40.4 MiB (9%)
Alignment                           : Aligned on interleaves
Interleave, duration                : 42 ms (1.00 video frame)
Interleave, preload duration        : 504 ms
Writing library                     : LAME3.99r
Encoding settings                   : -m s -V 4 -q 2 -lowpass 17 -b 128

Audio #2
ID                                  : 2
Format                              : MPEG Audio
Format version                      : Version 1
Format profile                      : Layer 3
Codec ID                            : 55
Codec ID/Hint                       : MP3
Duration                            : 44mn 4s
Bit rate mode                       : Constant
Bit rate                            : 128 Kbps
Channel(s)                          : 2 channels
Sampling rate                       : 48.0 KHz
Compression mode                    : Lossy
Stream size                         : 40.4 MiB (9%)
Alignment                           : Aligned on interleaves
Interleave, duration                : 42 ms (1.00 video frame)
Interleave, preload duration        : 504 ms
Writing library                     : LAME3.99r
Encoding settings                   : -m s -V 4 -q 2 -lowpass 17 -b 128


Внимание! Раздача ведётся путём добавления новых серийВнимание! Раздача ведётся путём добавления новых серий; при каждом добавлении создаётся новый торрент. Чтобы начать докачку новой серии, пользователям необходимо сделать следующее:
(1) остановить скачивание,
(2) удалить старый торрент у себя из клиента (старые серии удалять не надо),
(3) скачать новый торрент и запустить его у себя в клиенте вместо старого, при этом указать клиенту путь в старую папку куда и должно происходить скачивание новых серий.Ваш клиент при этом должен произвести хеширование (проверку) старой папки (если не производит сам - помогите ему сделать это), и будет докачивать только те серии которых у вас ещё нет. Старые серии при этом не удаляются, а продолжают раздаваться!Eсли вы уже удалили старые серии, то предотвратить повторную закачку старых серий можно, отжав галочку в соответствующих местах при запуске нового торрента. По возможности, желательно не удалять старые серии как можно дольше чтобы релизёр не столько продолжал раздавать старые серии, а смог сконцентрироваться на новых.




Скачать Агенты.Щ.И.Т.Agents.of.S.H.I.E.L.D.(сезон.01).(Дэвид.Стрейтон.Джосс.Уидон).[2013-2014.фантастика.боевик.драма.WEB-DL].[MVO.(LostFilm)]+[Eng].torrent без регистрации
Золото ЗОЛОТАЯ РАЗДАЧА! СКАЧАННОЕ НЕ ЗАСЧИТЫВАЕТСЯ! Золото
Дата: Зарегистрирован   [ Тип: внешний ] Как тут cкачать?
MAGNET ссылка
MAGNET ссылка


Скачать .torrent

180 KB

Статус: проверено DHT
Скачан: торрент - 3962 раз, раздача полностью - 308 раз
Размер: 8,89 GB
Оценка:  4,9 (Голосов: 8)
Поблагодарили: 20
Поделиться ссылкой на эту раздачу с друзьями:
В контактеFacebookОдноклассникиTwitterLivejournalМой МирLiveinternet
 

 

МихаНЕзатор

[] 

Раздача обновлена.
 
Показать сообщения:    


Вы не можете начинать темы
Вы не можете отвечать на сообщения
Вы не можете редактировать свои сообщения
Вы не можете удалять свои сообщения
Вы не можете голосовать в опросах
Вы не можете прикреплять файлы к сообщениям
Вы можете скачивать файлы