Loading...
Error

Скачать Как на ладони / Towelhead (Алан Болл) [2007, драма, HDRip] [MVO] [Лицензия] торрент без регистрации

 
Статистика раздачи
Размер:  2,18 GB   |    Скачан:  107 раз

Полного источника не было: 19 минут

 
Автор Сообщение

Marsianka

[] 

Информация о фильме
Название: Как на ладони
Оригинальное название: Towelhead
Год выхода: 2007
Жанр: драма
Режиссер: Алан Болл
В ролях: Саммер Бишил, Аарон Экхарт, Крис Мессина, Мария Белло, Питер Макдисси, Джеменн де ла Пенья, Роберт Бэйкер, Имонн Рош, Кэрри Престон, Чейз Эллисон, Ирина Воронина, Клео Кинг, Майкл МакШэй, Д.С. Коуди, Соледад Ст. Хилейр, Натали Уолкер, Ким Найт, ЛориДоун Мессури, Лорна Скотт, Линн Коллинс, Тони Коллетт, Юджин Джонс, Шэри Хидли, Рэнди Дж. Гудвин, Мэтт Летчер, Ларри Седар, Вирджиния Луиз Смит, Ли фон Эрнст, Лиза Катара, Алехандро Патино

О фильме:
«Кто ты?» спрашивает строгий отец-ливанец Джазиру Марун. Джазира не уверена. Она типичная 13-летняя девочка. Но для пригорода Хьюстона очень необычно ее американо-арабское происхождение. Ей нравится мальчик в школе. Ее тянет к привлекательному женатому соседу, состоящему в резерве армии. Ей любопытен секс. Но она ничего не смыслит в отношениях. Все эти люди пресекаются в судьбоносных, эмоциональных и зачастую смешных событиях, которые меняют жизнь Джазиры кардинально. Кто такая Джазира? Ответ на этот вопрос, как и на многие другие, может вас удивить.



MPAA: R - Лицам до 17 лет обязательно присутствие взрослого
Страна: США, Indian Paintbrush, Scott Rudin Productions, This Is That Productions, Your Face Goes Here Entertainment
Продолжительность: 01:56:22
Перевод: Профессиональный (многоголосый, закадровый) (Лицензия R5)

Файл
Кодек: XviD
Качество: HDRip /исходник: Towelhead.2007.720p.BluRay.X264-AMIABLE
Видео: XviD, 720x400 (16:9), 1900 kbps, 23,976 fps, 0,275 bpp
Аудио 1: AC3 / 5.1 / 48 kHz / 384 kbps / 16 bit (MVO)
Аудио 2: AC3 / 5.1 / 48 kHz / 384 kbps / 16 bit (ENG)
Семпл

General
Format : AVI
Format/Info : Audio Video Interleave
Format profile : OpenDML
File size : 2.18 GiB
Duration : 1h 56mn
Overall bit rate : 2 686 Kbps
Movie name : Towelhead.2007.XviD.АСЗ.HDRip.-MediaClub
Director : -=MediaClub-Odessit=-
Writing application : VirtualDubMod 1.5.10.3 (build 2550/release)
Writing library : VirtualDubMod build 2550/release

Video
ID : 0
Format : MPEG-4 Visual
Format profile : Advanced Simple@L5
Format settings, BVOP : 1
Format settings, QPel : No
Format settings, GMC : No warppoints
Format settings, Matrix : Custom
Codec ID : XVID
Codec ID/Hint : XviD
Duration : 1h 56mn
Bit rate : 1 900 Kbps
Width : 720 pixels
Height : 400 pixels
Display aspect ratio : 16:9
Frame rate : 23.976 fps
Color space : YUV
Chroma subsampling : 4:2:0
Bit depth : 8 bits
Scan type : Progressive
Compression mode : Lossy
Bits/(Pixel*Frame) : 0.275
Stream size : 1.54 GiB (71%)
Writing library : XviD 73

Audio #1
ID : 1
Format : AC-3
Format/Info : Audio Coding 3
Mode extension : CM (complete main)
Codec ID : 2000
Duration : 1h 56mn
Bit rate mode : Constant
Bit rate : 384 Kbps
Channel(s) : 6 channels
Channel positions : Front: L C R, Side: L R, LFE
Sampling rate : 48.0 KHz
Bit depth : 16 bits
Compression mode : Lossy
Stream size : 320 MiB (14%)
Alignment : Split accross interleaves
Interleave, duration : 42 ms (1.00 video frame)
Interleave, preload duration : 500 ms

Audio #2
ID : 2
Format : AC-3
Format/Info : Audio Coding 3
Mode extension : CM (complete main)
Codec ID : 2000
Duration : 1h 56mn
Bit rate mode : Constant
Bit rate : 384 Kbps
Channel(s) : 6 channels
Channel positions : Front: L C R, Side: L R, LFE
Sampling rate : 48.0 KHz
Bit depth : 16 bits
Compression mode : Lossy
Stream size : 320 MiB (14%)
Alignment : Split accross interleaves
Interleave, duration : 42 ms (1.00 video frame)
Interleave, preload duration : 500 ms
Релиз от:



Скачать Как.на.ладони.Towelhead.(Алан.Болл).[2007.драма.HDRip].[MVO].[Лицензия].torrent без регистрации
Золото ЗОЛОТАЯ РАЗДАЧА! СКАЧАННОЕ НЕ ЗАСЧИТЫВАЕТСЯ! Золото
Дата: Зарегистрирован   [ Тип: внутренний ] Как тут cкачать?
MAGNET ссылка
MAGNET ссылка


Скачать .torrent

11 KB

Статус: проверено DHT
Скачан: торрент - 107 раз, раздача полностью - 20 раз
Размер: 2,18 GB
Оценка:  5 (Голосов: 1)
Поблагодарили: 1
Поделиться ссылкой на эту раздачу с друзьями:
В контактеFacebookОдноклассникиTwitterLivejournalМой МирLiveinternet
 

 
Показать сообщения:    


Вы не можете начинать темы
Вы не можете отвечать на сообщения
Вы не можете редактировать свои сообщения
Вы не можете удалять свои сообщения
Вы не можете голосовать в опросах
Вы не можете прикреплять файлы к сообщениям
Вы можете скачивать файлы