Loading...
Error

Скачать Дорогая, мы себя уменьшили / Honey, We Shrunk Ourselves (Дин Канди) [1997, фантастика, боевик, комедия, приключения, семейный, DVDRip-AVC] [MVO]x2+[AVO]+[Оригинал] торрент без регистрации

 
Статистика раздачи
Размер:  2,19 GB   |    Скачан:  123 раза
Сидов:  1  [  0 KB/s  ]  
 
Автор Сообщение

Marsianka

[] 

Информация о фильме
Название: Дорогая, мы себя уменьшили
Оригинальное название: Honey, We Shrunk Ourselves
Год выхода: 1997
Жанр: фантастика, боевик, комедия, приключения, семейный
Режиссер: Дин Канди
В ролях: Рик Морэнис, Ив Гордон, Баг Холл, Робин Бартлетт, Стюарт Пэнкин, Эллисон Мэк, Джэйк Ричардсон, Джо Адамс, Брайсон Ост, Теодор Бордерс

Описание: На этот раз самому профессору выпал шанс оценить, каково сражаться с тараканами размером с Годзиллу и кататься на игрушечных автомобильчиках. Если дети вовремя не заметят своих маленьких родителей, они рискуют остаться сиротами.



Страна: США
Студия: Walt Disney Pictures
Продолжительность: 01:11:52
Перевод #1: Профессиональный (Многоголосый, Закадровый) (ОРТ)
Перевод #2: Профессиональный (Многоголосый, Закадровый) (Видеосервис)
Перевод #3: Авторский (Одноголосый, Закадровый) (Сергей Визгунов)
Перевод #4: Английский (Оригинал)
Файл
Формат: MKV
Качество: DVDRip-AVC
Видео: 720x528 (4:3), 25.000 fps, 3388 kbps
Аудио #1: AC-3, 2 ch, 192 kbps (Многоголосый ОРТ)
Аудио #2: AC-3, 2 ch, 192 kbps (Многоголосый Видеосервис)
Аудио #3: AC-3, 2 ch, 192 kbps (Одноголосый Сергей Визгунов)
Аудио #4: AC-3, 6 ch, 384 kbps (Английский Оригинал)
Субтитры: Английские (Полные)
Скачать: Семпл
General
Unique ID : 247025837209620487787686747105040095205 (0xB9D77218DDD65F2BBD3A4B192D3D57E5)
Complete name : Honey,We.Shrunk.Ourselves.1997.DVDRip.AVC.mkv
Format : Matroska
Format version : Version 2
File size : 2.19 GiB
Duration : 1h 11mn
Overall bit rate : 4 357 Kbps
Encoded date : UTC 2013-10-13 14:20:34
Writing application : mkvmerge v5.6.0 ('Kenya Kane') built on May 27 2012 16:44:04
Writing library : libebml v1.2.3 + libmatroska v1.3.0

Video
ID : 1
Format : AVC
Format/Info : Advanced Video Codec
Format profile : High@L4.1
Format settings, CABAC : Yes
Format settings, ReFrames : 4 frames
Codec ID : V_MPEG4/ISO/AVC
Duration : 1h 11mn
Bit rate : 3 388 Kbps
Width : 720 pixels
Height : 528 pixels
Display aspect ratio : 4:3
Frame rate mode : Constant
Frame rate : 25.000 fps
Color space : YUV
Chroma subsampling : 4:2:0
Bit depth : 8 bits
Scan type : Progressive
Bits/(Pixel*Frame) : 0.356
Stream size : 1.66 GiB (76%)
Title : Дорогая, Мы Себя Уменьшили (1997 Год) (DVDRip-AVC)
Writing library : x264 core 130 r2273 b3065e6
Encoding settings : cabac=1 / ref=4 / deblock=1:-1:-1 / analyse=0x3:0x113 / me=umh / subme=11 / psy=1 / psy_rd=1.00:0.00 / mixed_ref=1 / me_range=32 / chroma_me=1 / trellis=2 / 8x8dct=1 / cqm=0 / deadzone=21,11 / fast_pskip=1 / chroma_qp_offset=-2 / threads=6 / lookahead_threads=1 / sliced_threads=0 / nr=0 / decimate=1 / interlaced=0 / bluray_compat=0 / constrained_intra=0 / bframes=6 / b_pyramid=2 / b_adapt=2 / b_bias=0 / direct=3 / weightb=1 / open_gop=0 / weightp=2 / keyint=250 / keyint_min=25 / scenecut=40 / intra_refresh=0 / rc=2pass / mbtree=0 / bitrate=3388 / ratetol=1.0 / qcomp=0.60 / qpmin=0 / qpmax=69 / qpstep=4 / cplxblur=20.0 / qblur=0.5 / ip_ratio=1.40 / pb_ratio=1.30 / aq=1:1.00
Language : English
Default : Yes
Forced : No
Color primaries : BT.601 PAL
Transfer characteristics : BT.709
Matrix coefficients : BT.601

Audio #1
ID : 2
Format : AC-3
Format/Info : Audio Coding 3
Mode extension : CM (complete main)
Format settings, Endianness : Big
Codec ID : A_AC3
Duration : 1h 11mn
Bit rate mode : Constant
Bit rate : 192 Kbps
Channel(s) : 2 channels
Channel positions : Front: L R
Sampling rate : 48.0 KHz
Bit depth : 16 bits
Compression mode : Lossy
Stream size : 98.7 MiB (4%)
Title : Многоголосый 2.0 (ОРТ)
Language : Russian
Default : Yes
Forced : No

Audio #2
ID : 3
Format : AC-3
Format/Info : Audio Coding 3
Mode extension : CM (complete main)
Format settings, Endianness : Big
Codec ID : A_AC3
Duration : 1h 11mn
Bit rate mode : Constant
Bit rate : 192 Kbps
Channel(s) : 2 channels
Channel positions : Front: L R
Sampling rate : 48.0 KHz
Bit depth : 16 bits
Compression mode : Lossy
Stream size : 98.7 MiB (4%)
Title : Многоголосый 2.0 (Видеосервис)
Language : Russian
Default : No
Forced : No

Audio #3
ID : 4
Format : AC-3
Format/Info : Audio Coding 3
Mode extension : CM (complete main)
Format settings, Endianness : Big
Codec ID : A_AC3
Duration : 1h 11mn
Bit rate mode : Constant
Bit rate : 192 Kbps
Channel(s) : 2 channels
Channel positions : Front: L R
Sampling rate : 48.0 KHz
Bit depth : 16 bits
Compression mode : Lossy
Stream size : 98.7 MiB (4%)
Title : Сергей Визгунов 2.0
Language : Russian
Default : No
Forced : No

Audio #4
ID : 5
Format : AC-3
Format/Info : Audio Coding 3
Mode extension : CM (complete main)
Format settings, Endianness : Big
Codec ID : A_AC3
Duration : 1h 11mn
Bit rate mode : Constant
Bit rate : 384 Kbps
Channel(s) : 6 channels
Channel positions : Front: L C R, Side: L R, LFE
Sampling rate : 48.0 KHz
Bit depth : 16 bits
Compression mode : Lossy
Stream size : 197 MiB (9%)
Title : Английский 5.1 (Оригинал)
Language : English
Default : No
Forced : No

Text
ID : 6
Format : VobSub
Codec ID : S_VOBSUB
Codec ID/Info : The same subtitle format used on DVDs
Title : Английские (Полные)
Language : English
Default : No
Forced : No



Скачать Дорогая.мы.себя.уменьшили.Honey.We.Shrunk.Ourselves.(Дин.Канди).[1997.фантастика.боевик.комедия.приключения.семейный.DVDRip-AVC].[MVO]x2+[AVO]+[Оригинал].torrent без регистрации
Золото ЗОЛОТАЯ РАЗДАЧА! СКАЧАННОЕ НЕ ЗАСЧИТЫВАЕТСЯ! Золото
Дата: Зарегистрирован   [ Тип: внутренний ] Как тут cкачать?
MAGNET ссылка
MAGNET ссылка


Скачать .torrent

11 KB

Статус: проверено DHT
Скачан: торрент - 123 раз, раздача полностью - 37 раз
Размер: 2,19 GB
Оценка:  5 (Голосов: 1)
Поблагодарили: 3
Поделиться ссылкой на эту раздачу с друзьями:
В контактеFacebookОдноклассникиTwitterLivejournalМой МирLiveinternet
 

 
Показать сообщения:    


Вы не можете начинать темы
Вы не можете отвечать на сообщения
Вы не можете редактировать свои сообщения
Вы не можете удалять свои сообщения
Вы не можете голосовать в опросах
Вы не можете прикреплять файлы к сообщениям
Вы можете скачивать файлы