Loading...
Error

Скачать Легенда о пианисте / La Leggenda Del Pianista Sull'Oceano (Джузеппе Торнаторе / Giuseppe Tornatore) [1998, драма, мелодрама, музыка, BDRip] [Полная версия] [AVO] (Ю.Сербин) торрент без регистрации

 
Статистика раздачи
Размер:  2,2 GB   |    Скачан:  128 раз
Сидов:  1  [  0 KB/s  ]   Личеров:  1  [  0 KB/s  ]  
 
Автор Сообщение

leon030982

[] 

Легенда о пианисте / La Leggenda Del Pianista Sull'Oceano


Год выпуска: 1998
Страна: Италия
Жанр: фэнтези, мелодрама, драма, музыка
Продолжительность: 02:49:44
Перевод: Авторский (одноголосый, закадровый)[Ю.Сербин]
Режиссер: Джузеппе Торнаторе / Giuseppe Tornatore
В ролях: Тим Рот, Прюитт Тэйлор Винс, Мелани Тьерри, Билл Нанн, Кларенс Уильямс III, Питер Воэн, Ниал О`Брайэн, Габриэль Лавиа, Вернон Нерс, Альберто Васкес
Описание: Вскоре после Второй мировой войны бывший музыкант Макс приходит в магазин музыкальных инструментов чтобы продать свою трубу. Напоследок он играет на любимом инструменте, и владелец магазина узнаёт мелодию, обнаруженную на неизданной и восстановленной из осколков матрице записи, найденной в рояле, снятом с ранее круизного, а в годы войны – госпитального судна, а теперь намеченного к уничтожению. Это случайное открытие начинает рассказ Макса истории-легенды …


Качество видео: BDRip
Формат видео: AVI
Видео кодек: XviD
Аудио кодек: AC3
Видео: 720x304 (2.37:1), 23.976 fps, XviD build 73 ~1402 kbps avg, 0.27 bit/pixel
Аудио: 48 kHz, AC3 Dolby Digital, 3/2 (L,C,R,l,r) + LFE ch, ~448.00 kbps avg [AVO]
"Премия ""Золотой Глобус"" (2000 г.).
Премия Европейского международного фестиваля за лучшую операторскую работу.
6 премий ""Дэвид ди Донателло"", включая премию за лучшую режиссуру.
6 премий Итальянского Национального Синдиката киножурналистов, включая лучшую режиссуру и сценарий."

Код:

Общее
Полное имя                       : Legenda.o.Pianiste.1998.XviD.BDRip.AVO[Serbin].avi
Формат                           : AVI
Формат/Информация                : Audio Video Interleave
Профиль формата                  : OpenDML
Размер файла                     : 2,20 Гбайт
Продолжительность                : 2 ч. 49 м.
Общий поток                      : 1857 Кбит/сек
Жанр                             : Drama/Romance/Music/Fantasy
Программа кодирования            : VirtualDubMod 1.5.10.3 | www.virtualdub-fr.org || (build 2550/release)
Видео
Идентификатор                    : 0
Формат                           : MPEG-4 Visual
Профиль формата                  : Advanced Simple@L5
Параметр BVOP формата            : 2
Параметр QPel формата            : Нет
Параметр GMC формата             : Без точки перехода
Параметр матрицы формата         : Выборочная
Идентификатор кодека             : XVID
Идентификатор кодека/Подсказка   : XviD
Продолжительность                : 2 ч. 49 м.
Битрейт                          : 1397 Кбит/сек
Ширина                           : 720 пикселей
Высота                           : 304 пикселя
Соотношение сторон               : 2,35:1
Частота кадров                   : 23,976 кадра/сек
Цветовое пространство            : YUV
Субдискретизация насыщенности    : 4:2:0
Битовая глубина                  : 8 бит
Тип развёртки                    : Прогрессивная
Метод сжатия                     : С потерями
Бит/(Пиксели*Кадры)              : 0.266
Размер потока                    : 1,66 Гбайт (75%)
Библиотека кодирования           : XviD 73
Аудио
Идентификатор                    : 1
Формат                           : AC-3
Формат/Информация                : Audio Coding 3
Расширение режима                : CM (complete main)
Идентификатор кодека             : 2000
Продолжительность                : 2 ч. 49 м.
Вид битрейта                     : Постоянный
Битрейт                          : 448 Кбит/сек
Каналы                           : 6 каналов
Расположение каналов             : Front: L C R, Side: L R, LFE
Частота                          : 48,0 КГц
Битовая глубина                  : 16 бит
Метод сжатия                     : С потерями
Размер потока                    : 544 Мбайт (24%)
Выравнивание                     : Разделение по промежуткам
Продолжительность промежутка     : 42  мс. (1,00 видеокадр)
Время предзагрузки промежутка    : 500  мс.
Спасибо dsk71 за наложение "чистого голоса" на центр декодированного DTS-HD MA
Перевод Юрия Сербина выполнен в рамках сервиса от HDCLUB "Озвучивание". Спонсоры: xerman13, dsk71, Zarja87, tide, olegsoleg, Luka69, HPotter, denismgn1987, Dervish, dicka2000, Baron0580, tambov68, balloo, Magal, а так же пользователи ресурсов e180 - safreks, Ramis, пуля, anton966, ilbilb, Daniel Rock, GVR232, dir, Linnan, Bilko, urassiks, carnivale, DMX-92
А также пользователи пиратки: Jigsaw, Savinex, gemini, Letyoha3, Джосс, Guyver, Analaral.. Всем СПАСИБО!



Скачать Легенда.о.пианисте.La.Leggenda.Del.Pianista.Sull'Oceano.(Джузеппе.Торнаторе.Giuseppe.Tornatore).[1998.драма.мелодрама.музыка.BDRip].[Полная.версия].[AVO].(Ю.Сербин).torrent без регистрации
Золото ЗОЛОТАЯ РАЗДАЧА! СКАЧАННОЕ НЕ ЗАСЧИТЫВАЕТСЯ! Золото
Дата: Зарегистрирован   [ Тип: внутренний ] Как тут cкачать?
MAGNET ссылка
MAGNET ссылка


Скачать .torrent

12 KB

Статус: проверено DHT
Скачан: торрент - 128 раз, раздача полностью - 9 раз
Размер: 2,2 GB
Оценка:  5 (Голосов: 1)
Поблагодарили: 2
Поделиться ссылкой на эту раздачу с друзьями:
В контактеFacebookОдноклассникиTwitterLivejournalМой МирLiveinternet
 

 

leon030982

[] 

шикарный фильм ab ay Пожалуй после фильма "4 комнаты" это лучшая роль Тима Рота ab
 

Shara

[] 

Полностью согласен, отличный фильм! az
 
Показать сообщения:    


Вы не можете начинать темы
Вы не можете отвечать на сообщения
Вы не можете редактировать свои сообщения
Вы не можете удалять свои сообщения
Вы не можете голосовать в опросах
Вы не можете прикреплять файлы к сообщениям
Вы можете скачивать файлы