Loading...
Error

Скачать Полиция Майами - Отдел Нравов / Miami Vice (Сезон 01-05, серии 01-111 из 111) (Томас Картер, Джон Левелин Мокси, Джорж Стенфорд Браун) [1984-1990, полицейский боевик, DVDRip] [MVO] (СТС) торрент без регистрации

 
Статистика раздачи
Размер:  66,35 GB   |    Скачан:  162 раза
Сидов:  1  [  0 KB/s  ]  
 
Автор Сообщение

leon030982

[] 

Полиция майами - Отдел Нравов / Miami Vice



Год выхода: 1984 - 1990
Страна: США
Жанр: Боевик, триллер, драма, криминал
Продолжительность: 3 х ~ 01:37:00, 108 х ~ 00:49:00
Перевод: Профессиональный (многоголосный, закадровый)[СТС]

Режиссер: Томас Картер, Джон Левелин Мокси, Джорж Стенфорд Браун, Энтони Веркович, Ли Катзин

В ролях: Дон Джонсон, Филип Майкл Томас, Сандра Сантьяго, Оливия Браун, Майкл Тэлботт, Эдвард Джеймс Олмос, Джон Дил, Деннис Фарина , Мартин Ферреро, Хулио Оскар Мечосо, Чарли Барнетт, Белинда Монтгомери, Шина Истон, Пэрррис Бакнер, Марио Эрнесто Санчез, Марк Маколей, Джо Хесс, Шэйн Ле Мар, Грегори Сьерра, Нед Эйз

О фильме: Сериал «Полиция Майами: Отдел нравов» дебютировал в эфире канала NBC осенью 1984 года. Говорят, идея будущего шоу пришла в голову продюсера Энтони Йерковича, когда тот прочел в Times статью о новом законе, разрешающем полицейским использовать конфискат в своих операциях. Перед глазами Йерковича возникла сцена с детективом под прикрытием, разъезжающим на новеньком конфискованном Ferrari так родился самый известный и популярный полицейский сериал за всю историю американского TV.
Критики громили шоу, откровенно насмехаясь над его героями детективами Сони Крокеттом и Рикардо Таббсом, вечно зудящими о скудном финансировании полицейского департамента, однако щеголяющими в дорогой одежде и разъезжающими на роскошных авто. Но как бы ни язвили журналисты, зрители были от сериала в неописуемом восторге: прежде им не доводилось видеть такого необычного сплава наркотриллера и гламура.



Качество: DVDRip
Формат: AVI
Видео кодек: XviD
Аудио кодек: AC3
Видео: 640x480 (1.33:1), 23.976 fps, XviD MPEG-4 ~1485 kbps avg, 0.20 bit/pixel
Звук: #1 48 kHz, AC3 Dolby Digital, 2/0 (L,R) ch, ~192.00 kbps avg [MVO]
Звук: #2 48 kHz, AC3 Dolby Digital, 3/2 (L,C,R,l,r) + LFE ch, ~448.00 kbps avg [ENG]
Релиз группы NovaLan
Автор релиза 089233

Озвучка: СТС
Золотой глобус, 1989 год
Номинации (1):

Лучший актёр второго плана мини-сериала или фильма на ТВ (Эдвард Джеймс Олмос)

Золотой глобус, 1987 год
Номинации (2):

Лучшая мужская роль на ТВ (драма) (Дон Джонсон)
Лучший драматический сериал

Золотой глобус, 1986 год
Победитель (2):

Лучшая мужская роль на ТВ (драма) (Дон Джонсон)
Лучший актёр второго плана мини-сериала или фильма на ТВ (Эдвард Джеймс Олмос)

Номинации (2):

Лучшая мужская роль на ТВ (драма) (Филип Майкл Томас)
Лучший драматический сериал

Эмми, 1986 год
Номинации (1):

Лучшая мужская роль второго плана в драматическом сериале (Эдвард Джеймс Олмос)

Эмми, 1985 год
Победитель (1):

Лучшая мужская роль второго плана в драматическом сериале (Эдвард Джеймс Олмос)

Номинации (2):

Лучший драматический сериал
Лучшая мужская роль в драматическом сериале (Дон Джонсон)
General
Complete name : E:\INTERNET\Полиция Майами\1 сезон\1 серия.avi
Format : AVI
Format/Info : Audio Video Interleave
File size : 1.45 GiB
Duration : 1h 37mn
Overall bit rate : 2 140 Kbps
Writing application : VirtualDubMod 1.5.10.2 (build 2540/release)
Writing library : VirtualDubMod build 2540/release

Video
ID : 0
Format : MPEG-4 Visual
Format profile : Advanced Simple@L5
Format settings, BVOP : 2
Format settings, QPel : No
Format settings, GMC : No warppoints
Format settings, Matrix : Default (MPEG)
Muxing mode : Packed bitstream
Codec ID : XVID
Codec ID/Hint : XviD
Duration : 1h 37mn
Bit rate : 1 486 Kbps
Width : 640 pixels
Height : 480 pixels
Display aspect ratio : 4:3
Frame rate : 23.976 fps
Color space : YUV
Chroma subsampling : 4:2:0
Bit depth : 8 bits
Scan type : Progressive
Compression mode : Lossy
Bits/(Pixel*Frame) : 0.202
Stream size : 1.01 GiB (69%)
Writing library : XviD 1.2.1 (UTC 2008-12-04)

Audio #1
ID : 1
Format : AC-3
Format/Info : Audio Coding 3
Mode extension : CM (complete main)
Codec ID : 2000
Duration : 1h 37mn
Bit rate mode : Constant
Bit rate : 192 Kbps
Channel(s) : 2 channels
Channel positions : Front: L R
Sampling rate : 48.0 KHz
Bit depth : 16 bits
Compression mode : Lossy
Stream size : 134 MiB (9%)
Alignment : Split accross interleaves
Interleave, duration : 42 ms (1.00 video frame)
Interleave, preload duration : 500 ms

Audio #2
ID : 2
Format : AC-3
Format/Info : Audio Coding 3
Mode extension : CM (complete main)
Codec ID : 2000
Duration : 1h 37mn
Bit rate mode : Constant
Bit rate : 448 Kbps
Channel(s) : 6 channels
Channel positions : Front: L C R, Side: L R, LFE
Sampling rate : 48.0 KHz
Bit depth : 16 bits
Compression mode : Lossy
Stream size : 312 MiB (21%)
Alignment : Split accross interleaves
Interleave, duration : 42 ms (1.00 video frame)
Interleave, preload duration : 500 ms



Скачать Полиция.Майами.-.Отдел.Нравов.Miami.Vice.(Сезон.01-05.серии.01-111.из.111).(Томас.Картер.Джон.Левелин.Мокси.Джорж.Стенфорд.Браун).[1984-1990.полицейский.боевик.DVDRip].[MVO].(СТС).torrent без регистрации
Золото ЗОЛОТАЯ РАЗДАЧА! СКАЧАННОЕ НЕ ЗАСЧИТЫВАЕТСЯ! Золото
Дата: Зарегистрирован   [ Тип: внутренний ] Как тут cкачать?
MAGNET ссылка
MAGNET ссылка


Скачать .torrent

339 KB

Статус: проверено DHT
Скачан: торрент - 162 раз, раздача полностью - 23 раз
Размер: 66,35 GB
Оценка:  5 (Голосов: 2)
Поблагодарили: 1
Поделиться ссылкой на эту раздачу с друзьями:
В контактеFacebookОдноклассникиTwitterLivejournalМой МирLiveinternet
 

 
Показать сообщения:    


Вы не можете начинать темы
Вы не можете отвечать на сообщения
Вы не можете редактировать свои сообщения
Вы не можете удалять свои сообщения
Вы не можете голосовать в опросах
Вы не можете прикреплять файлы к сообщениям
Вы можете скачивать файлы