Loading...
Error

Скачать Древние / The Originals (сезоны 01-02) (Брэд Тёрнер) [2013, ужасы, фэнтези, драма, WEB-DL] [MVO (LostFilm)] торрент без регистрации

 
Статистика раздачи
Размер:  29,75 GB   |    Скачан:  187 раз
Сидов:  1  [  0 KB/s  ]  
 
Автор Сообщение

МихаНЕзатор

[] 

Информация о фильме
Название: Древние / Первородные
Оригинальное название: The Originals
Год выхода: 2013
Жанр: Ужасы, фэнтези, драма
Режиссер: Брэд Тёрнер

В ролях: Джозеф Морган, Дэниэл Гиллис, Чарльз Майкл Дэвис, Каллард Харрис, Александра Фикен, Даниэль Кэмпбелл, Эка Дарвилл, Клер Холт, Даниэлла Пинеда, Леа Пайпс

О фильме: Сила — в семье. Семья Древнейших дала зарок тысячу лет назад: они торжественно поклялись держаться друг друга, вместе и навсегда. И вот, сотни лет спустя семейные узы оказались разрушены. Время, трагедия и жажда власти отдалили членов Древнейшего семейства друг от друга. Когда Клаус Майклсон, древнейший гибрид вампира и вервульфа, получает загадочное предупреждение о зреющем против него во Французском квартале Нового Орлеана заговоре, он возвращается в город, который когда-то помогала строить его семья. На вопросы Клауса, вероятно, сможет ответить его бывший протеже Марсель, жестокий и харизматичный вампир, полностью подчинивший своей воле всех людей и сверхъестественных жителей Нового Орлеана. В надежде помочь брату обрести искупление Элайджа следует за Клаусом в Новый Орлеан. Вскоре он обнаруживает, что в поисках информации о своей семье во Французский квартал приезжает и тут же оказывается в руках могущественной ведьмы Софи оборотень Хейли. Пока Марсель отдаёт приказы верноподданным и наслаждается безграничной властью, напряжение между сверхъестественными группировками приближается к точке кипения. Для Клауса подчиниться воле могущественного протеже — немыслимо, и он клянётся вернуть себе обратно то, что однажды принадлежало ему: власть, город, семью. В ожидании решения, которое должна принять Ребекка, покинуть или нет Мистик Фоллс ради братьев и Нового Орлеана, Клаус и Элайджа создают хрупкий альянс с ведьмами, дабы быть уверенными, что Новым Орлеаном вновь будут править ДРЕВНЕЙШИЕ.

Релиз от:

Страна: США
Студия: Bonanza Productions, My So-Called Company, Alloy Entertainment
Продолжительность: 44 x ~ 00:43:00
Перевод: Профессиональный (многоголосый, закадровый) [LostFilm]

Файл
Формат: AVI
Качество: WEB-DLRip
Видео: XviD, 720x400, ~1850 kbps, 23.976 fps
Звук: AC3, 48.0 KHz, 2 ch, 384 Kbps
Субтитры: Нет

АНОНСЫ ПОПУЛЯРНЫХ РАЗДАЧ


Торрент обновлён, добавлен 2-й сезон!
Complete name : E:KinoDrevnie.XviD.GeneralfilmDrevnie.S01.2013-2014.XviD.LF.GeneralfilmDrevnie.s01e14.2014.XviD.LF.Generalfilm.avi
Format : AVI
Format/Info : Audio Video Interleave
File size : 685 MiB
Duration : 42mn 40s
Overall bit rate : 2 244 Kbps
Writing application : VirtualDubMod 1.5.10.3 | www.virtualdub-fr.org || (build 2550/release)
Writing library : VirtualDubMod build 2550/release

Video
ID : 0
Format : MPEG-4 Visual
Format profile : Advanced Simple@L5
Format settings, BVOP : 2
Format settings, QPel : No
Format settings, GMC : No warppoints
Format settings, Matrix : Default (H.263)
Codec ID : XVID
Codec ID/Hint : XviD
Duration : 42mn 40s
Bit rate : 1 851 Kbps
Width : 720 pixels
Height : 400 pixels
Display aspect ratio : 16:9
Frame rate : 23.976 fps
Color space : YUV
Chroma subsampling : 4:2:0
Bit depth : 8 bits
Scan type : Progressive
Compression mode : Lossy
Bits/(Pixel*Frame) : 0.268
Stream size : 565 MiB (82%)
Writing library : XviD 1.2.1 (UTC 2008-12-04)

Audio
ID : 1
Format : AC-3
Format/Info : Audio Coding 3
Mode extension : CM (complete main)
Format settings, Endianness : Big
Codec ID : 2000
Duration : 42mn 40s
Bit rate mode : Constant
Bit rate : 384 Kbps
Channel count : 2 channels
Channel positions : Front: L R
Sampling rate : 48.0 KHz
Bit depth : 16 bits
Compression mode : Lossy
Stream size : 117 MiB (17%)
Alignment : Split accross interleaves
Interleave, duration : 42 ms (1.00 video frame)
Interleave, preload duration : 500 ms



Скачать Древние.The.Originals.(сезоны.01-02).(Брэд.Тёрнер).[2013.ужасы.фэнтези.драма.WEB-DL].[MVO.(LostFilm)].torrent без регистрации
Золото ЗОЛОТАЯ РАЗДАЧА! СКАЧАННОЕ НЕ ЗАСЧИТЫВАЕТСЯ! Золото
Дата: Зарегистрирован   [ Тип: внутренний ] Как тут cкачать?
MAGNET ссылка
MAGNET ссылка


Скачать .torrent

81 KB

Статус: проверено DHT
Скачан: торрент - 187 раз, раздача полностью - 7 раз
Размер: 29,75 GB
Оценка:  4 (Голосов: 1)
Поблагодарили: 2
Поделиться ссылкой на эту раздачу с друзьями:
В контактеFacebookОдноклассникиTwitterLivejournalМой МирLiveinternet
 

 

МихаНЕзатор

[] 

Раздача обновлена.
 
Показать сообщения:    


Вы не можете начинать темы
Вы не можете отвечать на сообщения
Вы не можете редактировать свои сообщения
Вы не можете удалять свои сообщения
Вы не можете голосовать в опросах
Вы не можете прикреплять файлы к сообщениям
Вы можете скачивать файлы