Loading...
Error

Скачать Последний час / Zero Hour (01х01-11 из 13) (Стивен ДеПол, Билл Джирхарт, Пьер Морель) [2013, приключения, триллер, драма, детектив, HDTV] [1080p] [MVO (Baibako)] торрент без регистрации

 
Статистика раздачи
Размер:  24,03 GB   |    Скачан:  118 раз
Сидов:  1  [  0 KB/s  ]  
 
Автор Сообщение

МихаНЕзатор

[] 

Информация о фильме
Название: Последний час
Оригинальное название: Zero Hour
Год выхода: 2013
Жанр: триллер, драма, детектив, приключения
Режиссер: Стивен Уильямс, Пьер Морель

В ролях: Энтони Эдвардс, Кармен Эджого, Скотт Майкл Фостер, Эддисон Тимлин, Джасинда Бэррет, Микаэл Нюквист, Эми Ирвинг, Кен Люн, Генри Келемен, Чарльз С. Даттон, Клаудия МакЛэйн, Амир Арисон и др.

О фильме: Энтузиаст-издатель журнала о паранормальном «Современный скептик» Хэнк Галлистон потратил свою карьеру, следуя за подсказками, разоблачая мифы и раскрывая заговоры. Признанный помешанным на сверхъестественном, он руководствуется девизом «Логика это компас». Но когда его красивая жена Лейла похищена из своего магазина антикварных часов, Хэнк втягивается в одну из самых интригующих тайн в истории человечества, охватывающую весь мир и прошлые столетия.

Карта сокровищ спрятана внутри одних из часов его жены, и то, к чему она приведет, может вызвать катастрофические последствия. Теперь Хэнк должен расшифровать символы и раскрыть тайны карты, но так, чтобы ответы не попали в плохие руки руки человека, которого они называют Белым Винсентом. С двумя юными союзниками Рэйчел и Эрроном, а также привлекательным агентом ФБР Беккой Райли, Хэнк поведет их на захватывающую гонку на время, чтобы найти жену и спасти человечество.



Страна: США
Продолжительность: 8 x ~ 00:40:00
Перевод: Профессиональный (дублированный) Невафильм

Файл
Кодек: AVC
Качество: HDTV 1080i
Видео: 1920x1080 (16:9), 25.000 fps, ~7000 kbps avg, 0.13 bit/pixel
Звук:
Аудио: Русский, AC3, 48 kHz, 3/2 (L,C,R,l,r) + LFE ch, ~384.00 kbps avg |Дубляж, Невафильм|
Аудио 2: Русский, MP2, 48 kHz, 2 ch, ~192.00 kbps avg |Дубляж, Невафильм|

Релиз от: by Nez

20.10.2013 г. торент обновлён, добавлена 9-11 серия!

Season 1, Episodes 1-8
01: Strike
02: Face
03: Pendulum
04: Chain
05: Suspension
06: Weight
07: Sync
08: Winding
09: Balance
10: Escapement
11: Hands

12: Ratchet
13: Spring

Общее
Идентификатор : 1 (0x1)
Полное имя : E:uploadZero.Hour.S01.1080i.HDTV.Rus.HDCLUBZero.Hour.S01E01.1080i.HDTV.Rus.HDCLUB.ts
Формат : MPEG-TS
Размер файла : 2,16 Гбайт
Продолжительность : 40 м.
Режим общего битрейта : Переменный
Общий поток : 7676 Кбит/сек

Видео
Идентификатор : 401 (0x191)
Идентификатор меню : 1 (0x1)
Формат : AVC
Формат/Информация : Advanced Video Codec
Профиль формата : High@L4.0
Параметр CABAC формата : Да
Параметр ReFrames формата : 4 кадра
Идентификатор кодека : 27
Продолжительность : 40 м.
Битрейт : 6715 Кбит/сек
Ширина : 1920 пикселей
Высота : 1080 пикселей
Соотношение сторон : 16:9
Частота кадров : 25,000 кадров/сек
Стандарт вещания : Component
Цветовое пространство : YUV
Субдискретизация насыщенности : 4:2:0
Битовая глубина : 8 бит
Тип развёртки : MBAFF
Бит/(Пиксели*Кадры) : 0.130
Размер потока : 1,89 Гбайт (87%)
Основные цвета : BT.709
Характеристики трансфера : BT.709
Коэффициенты матрицы : BT.709

Аудио #1
Идентификатор : 410 (0x19A)
Идентификатор меню : 1 (0x1)
Формат : AC-3
Формат/Информация : Audio Coding 3
Расширение режима : CM (complete main)
Параметр Endianness формата : Big
Идентификатор кодека : 6
Продолжительность : 40 м.
Вид битрейта : Постоянный
Битрейт : 384 Кбит/сек
Каналы : 6 каналов
Расположение каналов : Front: L C R, Side: L R, LFE
Частота : 48,0 КГц
Битовая глубина : 16 бит
Метод сжатия : С потерями
Размер потока : 111 Мбайт (5%)
Язык : Russian

Аудио #2
Идентификатор : 411 (0x19B)
Идентификатор меню : 1 (0x1)
Формат : MPEG Audio
Версия формата : Version 1
Профиль формата : Layer 2
Идентификатор кодека : 3
Продолжительность : 40 м.
Вид битрейта : Постоянный
Битрейт : 192 Кбит/сек
Каналы : 2 канала
Частота : 48,0 КГц
Метод сжатия : С потерями
Размер потока : 55,3 Мбайт (3%)
Язык : English

Общее
Идентификатор : 1 (0x1)
Полное имя : E:uploadZero.Hour.S01.1080i.HDTV.Rus.HDCLUBZero.Hour.S01E02.1080i.HDTV.Rus.HDCLUB.ts
Формат : MPEG-TS
Размер файла : 2,18 Гбайт
Продолжительность : 40 м.
Режим общего битрейта : Переменный
Общий поток : 7683 Кбит/сек

Видео
Идентификатор : 401 (0x191)
Идентификатор меню : 1 (0x1)
Формат : AVC
Формат/Информация : Advanced Video Codec
Профиль формата : High@L4.0
Параметр CABAC формата : Да
Параметр ReFrames формата : 4 кадра
Идентификатор кодека : 27
Продолжительность : 40 м.
Битрейт : 6722 Кбит/сек
Ширина : 1920 пикселей
Высота : 1080 пикселей
Соотношение сторон : 16:9
Частота кадров : 25,000 кадров/сек
Стандарт вещания : Component
Цветовое пространство : YUV
Субдискретизация насыщенности : 4:2:0
Битовая глубина : 8 бит
Тип развёртки : MBAFF
Бит/(Пиксели*Кадры) : 0.130
Размер потока : 1,91 Гбайт (87%)
Основные цвета : BT.709
Характеристики трансфера : BT.709
Коэффициенты матрицы : BT.709

Аудио #1
Идентификатор : 410 (0x19A)
Идентификатор меню : 1 (0x1)
Формат : AC-3
Формат/Информация : Audio Coding 3
Расширение режима : CM (complete main)
Параметр Endianness формата : Big
Идентификатор кодека : 6
Продолжительность : 40 м.
Вид битрейта : Постоянный
Битрейт : 384 Кбит/сек
Каналы : 6 каналов
Расположение каналов : Front: L C R, Side: L R, LFE
Частота : 48,0 КГц
Битовая глубина : 16 бит
Метод сжатия : С потерями
Размер потока : 111 Мбайт (5%)
Язык : Russian

Аудио #2
Идентификатор : 411 (0x19B)
Идентификатор меню : 1 (0x1)
Формат : MPEG Audio
Версия формата : Version 1
Профиль формата : Layer 2
Идентификатор кодека : 3
Продолжительность : 40 м.
Вид битрейта : Постоянный
Битрейт : 192 Кбит/сек
Каналы : 2 канала
Частота : 48,0 КГц
Метод сжатия : С потерями
Размер потока : 55,7 Мбайт (2%)
Язык : English

Общее
Идентификатор : 1 (0x1)
Полное имя : E:uploadZero.Hour.S01.1080i.HDTV.Rus.HDCLUBZero.Hour.S01E03.1080i.HDTV.Rus.HDCLUB.ts
Формат : MPEG-TS
Размер файла : 2,17 Гбайт
Продолжительность : 40 м.
Режим общего битрейта : Переменный
Общий поток : 7701 Кбит/сек

Видео
Идентификатор : 401 (0x191)
Идентификатор меню : 1 (0x1)
Формат : AVC
Формат/Информация : Advanced Video Codec
Профиль формата : High@L4.0
Параметр CABAC формата : Да
Параметр ReFrames формата : 4 кадра
Идентификатор кодека : 27
Продолжительность : 40 м.
Битрейт : 6739 Кбит/сек
Ширина : 1920 пикселей
Высота : 1080 пикселей
Соотношение сторон : 16:9
Частота кадров : 25,000 кадров/сек
Стандарт вещания : Component
Цветовое пространство : YUV
Субдискретизация насыщенности : 4:2:0
Битовая глубина : 8 бит
Тип развёртки : MBAFF
Бит/(Пиксели*Кадры) : 0.130
Размер потока : 1,90 Гбайт (88%)
Основные цвета : BT.709
Характеристики трансфера : BT.709
Коэффициенты матрицы : BT.709

Аудио #1
Идентификатор : 410 (0x19A)
Идентификатор меню : 1 (0x1)
Формат : AC-3
Формат/Информация : Audio Coding 3
Расширение режима : CM (complete main)
Параметр Endianness формата : Big
Идентификатор кодека : 6
Продолжительность : 40 м.
Вид битрейта : Постоянный
Битрейт : 384 Кбит/сек
Каналы : 6 каналов
Расположение каналов : Front: L C R, Side: L R, LFE
Частота : 48,0 КГц
Битовая глубина : 16 бит
Метод сжатия : С потерями
Размер потока : 111 Мбайт (5%)
Язык : Russian

Аудио #2
Идентификатор : 411 (0x19B)
Идентификатор меню : 1 (0x1)
Формат : MPEG Audio
Версия формата : Version 1
Профиль формата : Layer 2
Идентификатор кодека : 3
Продолжительность : 40 м.
Вид битрейта : Постоянный
Битрейт : 192 Кбит/сек
Каналы : 2 канала
Частота : 48,0 КГц
Метод сжатия : С потерями
Размер потока : 55,3 Мбайт (2%)
Язык : English

Общее
Идентификатор : 1 (0x1)
Полное имя : E:uploadZero.Hour.S01.1080i.HDTV.Rus.HDCLUBZero.Hour.S01E04.1080i.HDTV.Rus.HDCLUB.ts
Формат : MPEG-TS
Размер файла : 2,22 Гбайт
Продолжительность : 41 м.
Режим общего битрейта : Переменный
Общий поток : 7716 Кбит/сек

Видео
Идентификатор : 401 (0x191)
Идентификатор меню : 1 (0x1)
Формат : AVC
Формат/Информация : Advanced Video Codec
Профиль формата : High@L4.0
Параметр CABAC формата : Да
Параметр ReFrames формата : 4 кадра
Идентификатор кодека : 27
Продолжительность : 41 м.
Битрейт : 6753 Кбит/сек
Ширина : 1920 пикселей
Высота : 1080 пикселей
Соотношение сторон : 16:9
Частота кадров : 25,000 кадров/сек
Стандарт вещания : Component
Цветовое пространство : YUV
Субдискретизация насыщенности : 4:2:0
Битовая глубина : 8 бит
Тип развёртки : MBAFF
Бит/(Пиксели*Кадры) : 0.130
Размер потока : 1,94 Гбайт (88%)
Основные цвета : BT.709
Характеристики трансфера : BT.709
Коэффициенты матрицы : BT.709

Аудио #1
Идентификатор : 410 (0x19A)
Идентификатор меню : 1 (0x1)
Формат : AC-3
Формат/Информация : Audio Coding 3
Расширение режима : CM (complete main)
Параметр Endianness формата : Big
Идентификатор кодека : 6
Продолжительность : 41 м.
Вид битрейта : Постоянный
Битрейт : 384 Кбит/сек
Каналы : 6 каналов
Расположение каналов : Front: L C R, Side: L R, LFE
Частота : 48,0 КГц
Битовая глубина : 16 бит
Метод сжатия : С потерями
Размер потока : 113 Мбайт (5%)
Язык : Russian

Аудио #2
Идентификатор : 411 (0x19B)
Идентификатор меню : 1 (0x1)
Формат : MPEG Audio
Версия формата : Version 1
Профиль формата : Layer 2
Идентификатор кодека : 3
Продолжительность : 41 м.
Вид битрейта : Постоянный
Битрейт : 192 Кбит/сек
Каналы : 2 канала
Частота : 48,0 КГц
Метод сжатия : С потерями
Размер потока : 56,6 Мбайт (2%)
Язык : English

Общее
Идентификатор : 1 (0x1)
Полное имя : E:uploadZero.Hour.S01.1080i.HDTV.Rus.HDCLUBZero.Hour.S01E05.1080i.HDTV.Rus.HDCLUB.ts
Формат : MPEG-TS
Размер файла : 2,22 Гбайт
Продолжительность : 41 м.
Режим общего битрейта : Переменный
Общий поток : 7714 Кбит/сек

Видео
Идентификатор : 401 (0x191)
Идентификатор меню : 1 (0x1)
Формат : AVC
Формат/Информация : Advanced Video Codec
Профиль формата : High@L4.0
Параметр CABAC формата : Да
Параметр ReFrames формата : 4 кадра
Идентификатор кодека : 27
Продолжительность : 41 м.
Битрейт : 6751 Кбит/сек
Ширина : 1920 пикселей
Высота : 1080 пикселей
Соотношение сторон : 16:9
Частота кадров : 25,000 кадров/сек
Стандарт вещания : Component
Цветовое пространство : YUV
Субдискретизация насыщенности : 4:2:0
Битовая глубина : 8 бит
Тип развёртки : MBAFF
Бит/(Пиксели*Кадры) : 0.130
Размер потока : 1,94 Гбайт (88%)
Основные цвета : BT.709
Характеристики трансфера : BT.709
Коэффициенты матрицы : BT.709

Аудио #1
Идентификатор : 410 (0x19A)
Идентификатор меню : 1 (0x1)
Формат : AC-3
Формат/Информация : Audio Coding 3
Расширение режима : CM (complete main)
Параметр Endianness формата : Big
Идентификатор кодека : 6
Продолжительность : 41 м.
Вид битрейта : Постоянный
Битрейт : 384 Кбит/сек
Каналы : 6 каналов
Расположение каналов : Front: L C R, Side: L R, LFE
Частота : 48,0 КГц
Битовая глубина : 16 бит
Метод сжатия : С потерями
Размер потока : 113 Мбайт (5%)
Язык : Russian

Аудио #2
Идентификатор : 411 (0x19B)
Идентификатор меню : 1 (0x1)
Формат : MPEG Audio
Версия формата : Version 1
Профиль формата : Layer 2
Идентификатор кодека : 3
Продолжительность : 41 м.
Вид битрейта : Постоянный
Битрейт : 192 Кбит/сек
Каналы : 2 канала
Частота : 48,0 КГц
Метод сжатия : С потерями
Размер потока : 56,6 Мбайт (2%)
Язык : English

Общее
Идентификатор : 1 (0x1)
Полное имя : E:uploadZero.Hour.S01.1080i.HDTV.Rus.HDCLUBZero.Hour.S01E06.1080i.HDTV.Rus.HDCLUB.ts
Формат : MPEG-TS
Размер файла : 2,23 Гбайт
Продолжительность : 41 м.
Режим общего битрейта : Переменный
Общий поток : 7721 Кбит/сек

Видео
Идентификатор : 401 (0x191)
Идентификатор меню : 1 (0x1)
Формат : AVC
Формат/Информация : Advanced Video Codec
Профиль формата : High@L4.0
Параметр CABAC формата : Да
Параметр ReFrames формата : 4 кадра
Идентификатор кодека : 27
Продолжительность : 41 м.
Битрейт : 6758 Кбит/сек
Ширина : 1920 пикселей
Высота : 1080 пикселей
Соотношение сторон : 16:9
Частота кадров : 25,000 кадров/сек
Стандарт вещания : Component
Цветовое пространство : YUV
Субдискретизация насыщенности : 4:2:0
Битовая глубина : 8 бит
Тип развёртки : MBAFF
Бит/(Пиксели*Кадры) : 0.130
Размер потока : 1,95 Гбайт (88%)
Основные цвета : BT.709
Характеристики трансфера : BT.709
Коэффициенты матрицы : BT.709

Аудио #1
Идентификатор : 410 (0x19A)
Идентификатор меню : 1 (0x1)
Формат : AC-3
Формат/Информация : Audio Coding 3
Расширение режима : CM (complete main)
Параметр Endianness формата : Big
Идентификатор кодека : 6
Продолжительность : 41 м.
Вид битрейта : Постоянный
Битрейт : 384 Кбит/сек
Каналы : 6 каналов
Расположение каналов : Front: L C R, Side: L R, LFE
Частота : 48,0 КГц
Битовая глубина : 16 бит
Метод сжатия : С потерями
Размер потока : 113 Мбайт (5%)
Язык : Russian

Аудио #2
Идентификатор : 411 (0x19B)
Идентификатор меню : 1 (0x1)
Формат : MPEG Audio
Версия формата : Version 1
Профиль формата : Layer 2
Идентификатор кодека : 3
Продолжительность : 41 м.
Вид битрейта : Постоянный
Битрейт : 192 Кбит/сек
Каналы : 2 канала
Частота : 48,0 КГц
Метод сжатия : С потерями
Размер потока : 56,7 Мбайт (2%)
Язык : English

Общее
Идентификатор : 1 (0x1)
Полное имя : E:uploadZero.Hour.S01.1080i.HDTV.Rus.HDCLUBZero.Hour.S01E07.1080i.HDTV.Rus.HDCLUB.ts
Формат : MPEG-TS
Размер файла : 2,21 Гбайт
Продолжительность : 41 м.
Режим общего битрейта : Переменный
Общий поток : 7694 Кбит/сек

Видео
Идентификатор : 401 (0x191)
Идентификатор меню : 1 (0x1)
Формат : AVC
Формат/Информация : Advanced Video Codec
Профиль формата : High@L4.0
Параметр CABAC формата : Да
Параметр ReFrames формата : 4 кадра
Идентификатор кодека : 27
Продолжительность : 41 м.
Битрейт : 6732 Кбит/сек
Ширина : 1920 пикселей
Высота : 1080 пикселей
Соотношение сторон : 16:9
Частота кадров : 25,000 кадров/сек
Стандарт вещания : Component
Цветовое пространство : YUV
Субдискретизация насыщенности : 4:2:0
Битовая глубина : 8 бит
Тип развёртки : MBAFF
Бит/(Пиксели*Кадры) : 0.130
Размер потока : 1,93 Гбайт (87%)
Основные цвета : BT.709
Характеристики трансфера : BT.709
Коэффициенты матрицы : BT.709

Аудио #1
Идентификатор : 410 (0x19A)
Идентификатор меню : 1 (0x1)
Формат : AC-3
Формат/Информация : Audio Coding 3
Расширение режима : CM (complete main)
Параметр Endianness формата : Big
Идентификатор кодека : 6
Продолжительность : 41 м.
Вид битрейта : Постоянный
Битрейт : 384 Кбит/сек
Каналы : 6 каналов
Расположение каналов : Front: L C R, Side: L R, LFE
Частота : 48,0 КГц
Битовая глубина : 16 бит
Метод сжатия : С потерями
Размер потока : 113 Мбайт (5%)
Язык : Russian

Аудио #2
Идентификатор : 411 (0x19B)
Идентификатор меню : 1 (0x1)
Формат : MPEG Audio
Версия формата : Version 1
Профиль формата : Layer 2
Идентификатор кодека : 3
Продолжительность : 41 м.
Вид битрейта : Постоянный
Битрейт : 192 Кбит/сек
Каналы : 2 канала
Частота : 48,0 КГц
Метод сжатия : С потерями
Размер потока : 56,4 Мбайт (2%)
Язык : English

Общее
Идентификатор : 1 (0x1)
Полное имя : E:uploadZero.Hour.S01.1080i.HDTV.Rus.HDCLUBZero.Hour.S01E08.1080i.HDTV.Rus.HDCLUB.ts
Формат : MPEG-TS
Размер файла : 2,20 Гбайт
Продолжительность : 40 м.
Режим общего битрейта : Переменный
Общий поток : 7709 Кбит/сек

Видео
Идентификатор : 401 (0x191)
Идентификатор меню : 1 (0x1)
Формат : AVC
Формат/Информация : Advanced Video Codec
Профиль формата : High@L4.0
Параметр CABAC формата : Да
Параметр ReFrames формата : 4 кадра
Идентификатор кодека : 27
Продолжительность : 40 м.
Битрейт : 6747 Кбит/сек
Ширина : 1920 пикселей
Высота : 1080 пикселей
Соотношение сторон : 16:9
Частота кадров : 25,000 кадров/сек
Стандарт вещания : Component
Цветовое пространство : YUV
Субдискретизация насыщенности : 4:2:0
Битовая глубина : 8 бит
Тип развёртки : MBAFF
Бит/(Пиксели*Кадры) : 0.130
Размер потока : 1,92 Гбайт (88%)
Основные цвета : BT.709
Характеристики трансфера : BT.709
Коэффициенты матрицы : BT.709

Аудио #1
Идентификатор : 410 (0x19A)
Идентификатор меню : 1 (0x1)
Формат : AC-3
Формат/Информация : Audio Coding 3
Расширение режима : CM (complete main)
Параметр Endianness формата : Big
Идентификатор кодека : 6
Продолжительность : 40 м.
Вид битрейта : Постоянный
Битрейт : 384 Кбит/сек
Каналы : 6 каналов
Расположение каналов : Front: L C R, Side: L R, LFE
Частота : 48,0 КГц
Битовая глубина : 16 бит
Метод сжатия : С потерями
Размер потока : 112 Мбайт (5%)
Язык : Russian

Аудио #2
Идентификатор : 411 (0x19B)
Идентификатор меню : 1 (0x1)
Формат : MPEG Audio
Версия формата : Version 1
Профиль формата : Layer 2
Идентификатор кодека : 3
Продолжительность : 40 м.
Вид битрейта : Постоянный
Битрейт : 192 Кбит/сек
Каналы : 2 канала
Частота : 48,0 КГц
Метод сжатия : С потерями
Размер потока : 56,0 Мбайт (2%)
Язык : English



Скачать Последний.час.Zero.Hour.(01х01-11.из.13).(Стивен.ДеПол.Билл.Джирхарт.Пьер.Морель).[2013.приключения.триллер.драма.детектив.HDTV].[1080p].[MVO.(Baibako)].torrent без регистрации
Золото ЗОЛОТАЯ РАЗДАЧА! СКАЧАННОЕ НЕ ЗАСЧИТЫВАЕТСЯ! Золото
Дата: Зарегистрирован   [ Тип: внутренний ] Как тут cкачать?
MAGNET ссылка
MAGNET ссылка


Скачать .torrent

31 KB

Статус: проверено DHT
Скачан: торрент - 118 раз, раздача полностью - 1 раз
Размер: 24,03 GB
Оценка:  5 (Голосов: 1)
Поблагодарили: 1
Поделиться ссылкой на эту раздачу с друзьями:
В контактеFacebookОдноклассникиTwitterLivejournalМой МирLiveinternet
 

 

МихаНЕзатор

[] 

Раздача обновлена.
 
Показать сообщения:    


Вы не можете начинать темы
Вы не можете отвечать на сообщения
Вы не можете редактировать свои сообщения
Вы не можете удалять свои сообщения
Вы не можете голосовать в опросах
Вы не можете прикреплять файлы к сообщениям
Вы можете скачивать файлы