Loading...
Error

Скачать Последний час / Zero Hour (сезон 01) (Стивен Уильямс, Пьер Морель) [2013, триллер, драма, детектив, приключения, WEB-DL] [720p] [Dub (Невафильм)] торрент без регистрации

 
Статистика раздачи
Размер:  18,76 GB   |    Скачан:  136 раз

Полного источника не было: 27 минут

 
Автор Сообщение

МихаНЕзатор

[] 

Информация о фильме
Название: Последний час
Оригинальное название: Zero Hour
Год выхода: 2013
Жанр: триллер, драма, детектив, приключения
Режиссер: Стивен Уильямс, Пьер Морель
В ролях: Энтони Эдвардс, Кармен Эджого, Скотт Майкл Фостер, Эддисон Тимлин, Джасинда Бэррет, Микаэл Нюквист, Эми Ирвинг, Кен Люн, Генри Келемен, Чарльз С. Даттон, Клаудия МакЛэйн, Амир Арисон и др.

О фильме:
Энтузиаст-издатель журнала о паранормальном «Современный скептик» Хэнк Галлистон потратил свою карьеру, следуя за подсказками, разоблачая мифы и раскрывая заговоры. Признанный помешанным на сверхъестественном, он руководствуется девизом «Логика это компас». Но когда его красивая жена Лейла похищена из своего магазина антикварных часов, Хэнк втягивается в одну из самых интригующих тайн в истории человечества, охватывающую весь мир и прошлые столетия.

Карта сокровищ спрятана внутри одних из часов его жены, и то, к чему она приведет, может вызвать катастрофические последствия. Теперь Хэнк должен расшифровать символы и раскрыть тайны карты, но так, чтобы ответы не попали в плохие руки руки человека, которого они называют Белым Винсентом. С двумя юными союзниками Рэйчел и Эрроном, а также привлекательным агентом ФБР Беккой Райли, Хэнк поведет их на захватывающую гонку на время, чтобы найти жену и спасти человечество.



Страна: США
Продолжительность: 9 x ~ 00:40:00
Перевод: Профессиональный (дублированный) Невафильм

Файл
Кодек: AVC
Качество: WEB-DL 720p
Видео: MPEG-4 AVC, ~ 4000 Кбит/с, 1280x720
Звук: Русский, английский (AC3, 6 ch, 384 Кбит/с)
Субтитры: форсированные русские (надписи)

26.10.2013 г. торент обновлён, добавлена 10-13 серия!

Season 1, Episodes 1-8
01 - Пораженный / Strike
02 - Циферблат / Face
03 - Маятник / Pendulum
04 - Цепь / Chain
05 - Нить подвеса / Suspension
06 - Гирька / Weight
07 - Сверим часы / Sync
08 - Спираль / Winding
09 - Балансир / Balance
10 - Спусковой механизм / Escapement
11 - Стрелки / Hands
12 - Собачка / Ratchet
13 - Пружина / Spring

General
Unique ID : 182249442008713700807838272917592613534 (0x891BF73CC8C74B24A1AD6A7188AC229E)
Complete name : zero.hour.s01e01.web-dl.720p.dub.eng.mkv
Format : Matroska
Format version : Version 4 / Version 2
File size : 1.49 GiB
Duration : 42mn 39s
Overall bit rate : 4 997 Kbps
Movie name : Zero.Hour.S01E01.720p.WEB-DL.DD5.1.H.264-BS666 (CasStudio.TV)
Encoded date : UTC 2013-10-05 02:59:33
Writing application : mkvmerge v6.4.1 ('Omega Point') built on Sep 16 2013 22:05:10
Writing library : libebml v1.3.0 + libmatroska v1.4.1
Attachment : Yes / Yes / Yes

Video
ID : 1
Format : AVC
Format/Info : Advanced Video Codec
Format profile : High@L3.1
Format settings, CABAC : No
Format settings, ReFrames : 2 frames
Codec ID : V_MPEG4/ISO/AVC
Duration : 42mn 39s
Bit rate : 4 129 Kbps
Width : 1 280 pixels
Height : 720 pixels
Display aspect ratio : 16:9
Frame rate : 23.976 fps
Color space : YUV
Chroma subsampling : 4:2:0
Bit depth : 8 bits
Scan type : Progressive
Bits/(Pixel*Frame) : 0.187
Stream size : 1.23 GiB (83%)
Language : English
Default : Yes
Forced : No
Color primaries : BT.709-5, BT.1361, IEC 61966-2-4, SMPTE RP177
Transfer characteristics : BT.709-5, BT.1361
Matrix coefficients : BT.709-5, BT.1361, IEC 61966-2-4 709, SMPTE RP177

Audio #1
ID : 2
Format : AC-3
Format/Info : Audio Coding 3
Mode extension : CM (complete main)
Format settings, Endianness : Big
Codec ID : A_AC3
Duration : 42mn 39s
Bit rate mode : Constant
Bit rate : 384 Kbps
Channel(s) : 6 channels
Channel positions : Front: L C R, Side: L R, LFE
Sampling rate : 48.0 KHz
Bit depth : 16 bits
Compression mode : Lossy
Stream size : 117 MiB (8%)
Language : Russian
Default : Yes
Forced : No

Audio #2
ID : 3
Format : AC-3
Format/Info : Audio Coding 3
Mode extension : CM (complete main)
Format settings, Endianness : Big
Codec ID : A_AC3
Duration : 42mn 39s
Bit rate mode : Constant
Bit rate : 384 Kbps
Channel(s) : 6 channels
Channel positions : Front: L C R, Side: L R, LFE
Sampling rate : 48.0 KHz
Bit depth : 16 bits
Compression mode : Lossy
Stream size : 117 MiB (8%)
Language : English
Default : No
Forced : No

Text #1
ID : 4
Format : ASS
Codec ID : S_TEXT/ASS
Codec ID/Info : Advanced Sub Station Alpha
Compression mode : Lossless
Title : Forced ASS
Language : Russian
Default : Yes
Forced : No

Text #2
ID : 5
Format : UTF-8
Codec ID : S_TEXT/UTF8
Codec ID/Info : UTF-8 Plain Text
Title : Forced SRT
Language : Russian
Default : No
Forced : No
Релиз от: by BS666



Скачать Последний.час.Zero.Hour.(сезон.01).(Стивен.Уильямс.Пьер.Морель).[2013.триллер.драма.детектив.приключения.WEB-DL].[720p].[Dub.(Невафильм)].torrent без регистрации
Золото ЗОЛОТАЯ РАЗДАЧА! СКАЧАННОЕ НЕ ЗАСЧИТЫВАЕТСЯ! Золото
Дата: Зарегистрирован   [ Тип: внутренний ] Как тут cкачать?
MAGNET ссылка
MAGNET ссылка


Скачать .torrent

95 KB

Статус: проверено DHT
Скачан: торрент - 136 раз, раздача полностью - 8 раз
Размер: 18,76 GB
Оценка:  - (Голосов: 0)
Поблагодарили: 1
Поделиться ссылкой на эту раздачу с друзьями:
В контактеFacebookОдноклассникиTwitterLivejournalМой МирLiveinternet
 

 

МихаНЕзатор

[] 

Раздача обновлена.
 
Показать сообщения:    


Вы не можете начинать темы
Вы не можете отвечать на сообщения
Вы не можете редактировать свои сообщения
Вы не можете удалять свои сообщения
Вы не можете голосовать в опросах
Вы не можете прикреплять файлы к сообщениям
Вы можете скачивать файлы