Loading...
Error

Скачать Подпольная Империя / Boardwalk Empire / Сезон 4, Эпизод 6 (12) [2013 г., драма, криминал, HDTVRip] [AVO] (Ю.Сербин) + Original торрент без регистрации

 
Статистика раздачи
Размер:  652 MB   |    Скачан:  639 раз
Сидов:  1  [  0 KB/s  ]  
 
Автор Сообщение

leon030982

[] 



Год выпуска: 2013
Страна: США | HBO
Жанр: драма, криминальный
Продолжительность: ~ 00:58:27
Перевод: Авторский (одноголосый, закадровый) |Ю. Сербин|
Субтитры: Отсутствуют

Режиссер: Тимоти Ван Паттен, Аллен Култер
В ролях: Стив Бушеми, Майкл Питт, Келли Макдоналд, Майкл Шеннон, Ши Уигхэм, Алекса Палладино, Майкл Стулбарг, Стивен Грэм, Винсент Пьяцца, Джек Хьюстон и др.
Описание: 1920 год. Через несколько часов Атлантик-Сити — столица развлечений и порока, как и вся Америка, вступит в эпоху «Сухого закона». Енох «Наки» Томпсон, днем — городской казначей, а ночью — хитроумный гангстер со связями на самом «верху», решает воспользоваться ситуацией и получить баснословные прибыли на подпольной торговле алкоголем. Однако не он один жаждет обогатиться на новом промысле…

IMDb | КиноПоиск
Качество: HDTVRip
Формат: AVI
Видео кодек: XvID
Аудио кодек: MP3
Видео: 720x400 (1.80:1), 23.976 fps, XviD build 64 ~1287 kbps avg, 0.19 bit/pixel
Аудио #1: MP3, 48.0 KHz, 2 ch, 128 Kbps |Ю. Сербин|
Аудио #2: MP3, 48.0 KHz, 2 ch, 128 Kbps |оригинал|
General
Complete name : E:\INTERNET\Podpolnaja.imperija.(4.sezon).2013.XviD.HDTVRip\Podpolnaja.imperija.(4.sezon.06.serija.iz.12).2013.XviD.HDTVRip(Serbin)+Eng..avi
Format : AVI
Format/Info : Audio Video Interleave
File size : 655 MiB
Duration : 58mn 27s
Overall bit rate : 1 566 Kbps
Movie name : Boardwalk Empire 4x06
Writing application : XviD4PSP 6.0 / 54.29.105

Video
ID : 0
Format : MPEG-4 Visual
Format profile : Simple@L3
Format settings, BVOP : No
Format settings, QPel : No
Format settings, GMC : No warppoints
Format settings, Matrix : Default (H.263)
Codec ID : XVID
Codec ID/Hint : XviD
Duration : 58mn 27s
Bit rate : 1 290 Kbps
Width : 720 pixels
Height : 400 pixels
Display aspect ratio : 16:9
Frame rate : 23.976 fps
Color space : YUV
Chroma subsampling : 4:2:0
Bit depth : 8 bits
Scan type : Progressive
Bits/(Pixel*Frame) : 0.187
Stream size : 539 MiB (82%)
Title : Boardwalk Empire 4x06: The North Star / Северная звезда
Writing library : XviD 64

Audio #1
ID : 1
Format : MPEG Audio
Format version : Version 1
Format profile : Layer 3
Mode : Joint stereo
Codec ID : 55
Codec ID/Hint : MP3
Duration : 58mn 25s
Bit rate mode : Constant
Bit rate : 128 Kbps
Channel(s) : 2 channels
Sampling rate : 48.0 KHz
Stream size : 53.5 MiB (8%)
Alignment : Aligned on interleaves
Interleave, duration : 24 ms (0.58 video frame)
Title : Ю. Сербин

Audio #2
ID : 2
Format : MPEG Audio
Format version : Version 1
Format profile : Layer 3
Mode : Joint stereo
Mode extension : MS Stereo
Codec ID : 55
Codec ID/Hint : MP3
Duration : 58mn 25s
Bit rate mode : Constant
Bit rate : 128 Kbps
Channel(s) : 2 channels
Sampling rate : 48.0 KHz
Stream size : 53.5 MiB (8%)
Alignment : Aligned on interleaves
Interleave, duration : 24 ms (0.58 video frame)
Перевод Ю.Сербина осуществлен в рамках сервиса "Озвучивание" (HDClub)
Спонсоры: rubak, denismgn1987, ochkarik1, Loki1982, Max_U, ray_hollis, SckraT, FM1981, RAUL, oak, Confidence, deadbeef
Работа со звуком: Nez



Скачать Подпольная.Империя.Boardwalk.Empire.Сезон.4.Эпизод.6.(12).[2013.г.драма.криминал.HDTVRip].[AVO].(Ю.Сербин).+.Original.torrent без регистрации
Золото ЗОЛОТАЯ РАЗДАЧА! СКАЧАННОЕ НЕ ЗАСЧИТЫВАЕТСЯ! Золото
Дата: Зарегистрирован   [ Тип: внутренний ] Как тут cкачать?
MAGNET ссылка
MAGNET ссылка


Скачать .torrent

13 KB

Статус: проверено DHT
Скачан: торрент - 639 раз, раздача полностью - 32 раз
Размер: 652 MB
Оценка:  5 (Голосов: 1)
Поблагодарили: 2
Поделиться ссылкой на эту раздачу с друзьями:
В контактеFacebookОдноклассникиTwitterLivejournalМой МирLiveinternet
 

 
Показать сообщения:    


Вы не можете начинать темы
Вы не можете отвечать на сообщения
Вы не можете редактировать свои сообщения
Вы не можете удалять свои сообщения
Вы не можете голосовать в опросах
Вы не можете прикреплять файлы к сообщениям
Вы можете скачивать файлы