Loading...
Error

Скачать Ужасный доктор Орлоф / Gritos en la noche The Awful Dr. Orlof (Хесус Франко) [1962,ужасы, триллер, BDRip] [AVO (Алексеев)] торрент без регистрации

 
Статистика раздачи
Размер:  1,46 GB   |    Скачан:  105 раз
Сидов:  1  [  0 KB/s  ]  
 
Автор Сообщение

deadmauVlad

[] 

Ужасный доктор Орлоф / Gritos en la noche

Страна: Испания, Франция
Жанр: ужасы, триллер
Год выпуска: 1962
Продолжительность: 01:26:42

Перевод: Авторский (одноголосый закадровый) Алексеев Антон
Cубтитры: нет

Режиссер: Хесус Франко / Jesus Franco

В ролях: Перла Кристал, Рикардо Валле, Диана Лорис, Конрадо Сан Мартин, Мария Силва

Описание: Полицейский инспектор занимается делом об исчезновения певичек из кабаре. Его предприимчивая невеста хочет помочь в расследовании и появляется в увеселительном заведении под видом дамы легкого поведения. Она становится объектом внимания злоумышленников — доктора Орлофа и его помощника, слепого лунатика Морфо. В уединенном замке доктор снимал кожу с похищенных девушек, дабы использовать ее для возвращения красоты своей изуродованной сестре Мелиссе.



Качество видео: BDRip | Diablo/1080p BD-Remux
Формат видео: AVI

Видео: 720x432 (1.67:1), 23.976 fps, XviD build 73 ~2201 kbps avg, 0.29 bit/pixel
Аудио: 48 kHz, AC3 Dolby Digital, 2/0 (L,R) ch, ~192 kbps
Общее
Полное имя : C:\Documents and Settings\Пользователь\Рабочий стол\Торрентс.ру\Gritos.en.la.noche.1962.BDRip.AVO_by_LBS.avi
Формат : AVI
Формат/Информация : Audio Video Interleave
Размер файла : 1,46 Гбайт
Продолжительность : 1 ч. 26 м.
Общий поток : 2403 Кбит/сек
Режиссёр : Last Boy Scout
Программа кодирования : VirtualDubMod 1.5.10.3 | www.virtualdub-fr.org || (build 2550/release)
Правообладатель : rutracker.org 20.10.2013
Примечание : BDRip AVO (Алексеев)

Видео
Идентификатор : 0
Формат : MPEG-4 Visual
Профиль формата : Advanced Simple@L5
Параметр BVOP формата : 1
Параметр QPel формата : Нет
Параметр GMC формата : Без точки перехода
Параметр матрицы формата : Выборочная
Идентификатор кодека : XVID
Идентификатор кодека/Подсказка : XviD
Продолжительность : 1 ч. 26 м.
Битрейт : 2202 Кбит/сек
Ширина : 720 пикселей
Высота : 432 пикселя
Соотношение сторон : 1,667
Частота кадров : 23,976 кадра/сек
Цветовое пространство : YUV
Субдискретизация насыщенности : 4:2:0
Битовая глубина : 8 бит
Тип развёртки : Прогрессивная
Метод сжатия : С потерями
Бит/(Пиксели*Кадры) : 0.295
Размер потока : 1,33 Гбайт (92%)
Библиотека кодирования : XviD 73

Аудио
Идентификатор : 1
Формат : AC-3
Формат/Информация : Audio Coding 3
Расширение режима : CM (complete main)
Параметр Endianness формата : Big
Идентификатор кодека : 2000
Продолжительность : 1 ч. 26 м.
Вид битрейта : Постоянный
Битрейт : 192 Кбит/сек
Каналы : 2 канала
Расположение каналов : Front: L R
Частота : 48,0 КГц
Битовая глубина : 16 бит
Метод сжатия : С потерями
Размер потока : 119 Мбайт (8%)
Выравнивание : Разделение по промежуткам
Продолжительность промежутка : 42 мс. (1,00 видеокадр)
Время предзагрузки промежутка : 500 мс.



Скачать Ужасный.доктор.Орлоф.Gritos.en.la.noche.The.Awful.Dr.Orlof.(Хесус.Франко).[1962.ужасы.триллер.BDRip].[AVO.(Алексеев)].torrent без регистрации
Золото ЗОЛОТАЯ РАЗДАЧА! СКАЧАННОЕ НЕ ЗАСЧИТЫВАЕТСЯ! Золото
Дата: Зарегистрирован   [ Тип: внутренний ] Как тут cкачать?
MAGNET ссылка
MAGNET ссылка


Скачать .torrent

15 KB

Статус: проверено DHT
Скачан: торрент - 105 раз, раздача полностью - 3 раз
Размер: 1,46 GB
Оценка:  - (Голосов: 0)
Поблагодарили: 1
Поделиться ссылкой на эту раздачу с друзьями:
В контактеFacebookОдноклассникиTwitterLivejournalМой МирLiveinternet
 

 
Показать сообщения:    


Вы не можете начинать темы
Вы не можете отвечать на сообщения
Вы не можете редактировать свои сообщения
Вы не можете удалять свои сообщения
Вы не можете голосовать в опросах
Вы не можете прикреплять файлы к сообщениям
Вы можете скачивать файлы