Loading...
Error

Скачать Приключения Шерлока Холмса / The Adventures of Sherlock Holmes (Альфред Л. Веркер) [1939, триллер, криминал, детектив, BDRip] [MVO] + [AVO] (Ю.Сербин) торрент без регистрации

 
Статистика раздачи
Размер:  1,52 GB   |    Скачан:  112 раз
Сидов:  1  [  0 KB/s  ]  
 
Автор Сообщение

leon030982

[] 

Приключения Шерлока Холмса / The Adventures of Sherlock Holmes


Год выхода: 1939
Жанр: триллер, криминал, детектив
Выпущено: США
Продолжительность: 01:21:42
Перевод #1: Профессиональный (многоголосый, закадровый)
Перевод #2: Авторский (одноголосный) [Ю.Сербин]

Режиссер: Альфред Л. Веркер / Alfred L. Werker

В ролях: Бейзил Рэтбоун, Найджел Брюс, Ида Лупино, Джордж Зукко, Алан Маршал, Терри Килбёрн, Генри Стивенсон, Артур Хол, Мэй Битти, Питер Уиллз

О фильме:Профессор Мориарти разработал план кражи драгоценности короны из Лондонского Тауэра, чтобы вовлечь в игру Холмса, он убеждает флейтиста-гаучо убить девочку.



Качество: BDRip
Формат: AVI
Видео кодек: XviD
Аудио кодек: AC3
Видео: 720x536 (1.34:1), 23.976 fps, ~2070 kbps avg, 0.22 bit/pixel
Аудио #1: 48 kHz, AC3 Dolby Digital, 2/0 (L,R), ~192.00 kbps avg [MVO]
Аудио #2: 48 kHz, AC3 Dolby Digital, 6 Ch, ~384.00 kbps avg [Ю.Сербин (отдельно)]
за исходник спасибо hdtracker (v111o)
За перевод Ю. Сербина благодарим пользователей форума forum.hdtracker.org:
-Джосс-, denis_mgn_1987, foxlight, KpucTo161, Letyoha3, SavineX, therox, v111o, Xerman13, ZeRoNe, MeGUI, Jiraya87
General
Complete name : E:\INTERNET\Шерлок Холмс\Приключения Шерлока Холмса.avi
Format : AVI
Format/Info : Audio Video Interleave
File size : 1.30 GiB
Duration : 1h 21mn
Overall bit rate : 2 272 Kbps
Writing library : VirtualDub build 35390/release

Video
ID : 0
Format : MPEG-4 Visual
Format profile : Advanced Simple@L5
Format settings, BVOP : Yes
Format settings, QPel : No
Format settings, GMC : No warppoints
Format settings, Matrix : Default (MPEG)
Codec ID : XVID
Codec ID/Hint : XviD
Duration : 1h 21mn
Bit rate : 2 070 Kbps
Width : 720 pixels
Height : 536 pixels
Display aspect ratio : 4:3
Frame rate : 23.976 fps
Color space : YUV
Chroma subsampling : 4:2:0
Bit depth : 8 bits
Scan type : Progressive
Bits/(Pixel*Frame) : 0.224
Stream size : 1.18 GiB (91%)
Writing library : XviD 1.2.0.dev47 (UTC 2006-11-01)

Audio
ID : 1
Format : AC-3
Format/Info : Audio Coding 3
Mode extension : CM (complete main)
Codec ID : 2000
Duration : 1h 21mn
Bit rate mode : Constant
Bit rate : 192 Kbps
Channel(s) : 2 channels
Channel positions : Front: L R
Sampling rate : 48.0 KHz
Bit depth : 16 bits
Stream size : 112 MiB (8%)
Alignment : Aligned on interleaves
Interleave, duration : 42 ms (1.00 video frame)
Interleave, preload duration : 512 ms



Скачать Приключения.Шерлока.Холмса.The.Adventures.of.Sherlock.Holmes.(Альфред.Л.Веркер).[1939.триллер.криминал.детектив.BDRip].[MVO].+.[AVO].(Ю.Сербин).torrent без регистрации
Золото ЗОЛОТАЯ РАЗДАЧА! СКАЧАННОЕ НЕ ЗАСЧИТЫВАЕТСЯ! Золото
Дата: Зарегистрирован   [ Тип: внутренний ] Как тут cкачать?
MAGNET ссылка
MAGNET ссылка


Скачать .torrent

16 KB

Статус: проверено DHT
Скачан: торрент - 112 раз, раздача полностью - 7 раз
Размер: 1,52 GB
Оценка:  5 (Голосов: 1)
Поблагодарили: 1
Поделиться ссылкой на эту раздачу с друзьями:
В контактеFacebookОдноклассникиTwitterLivejournalМой МирLiveinternet
 

 
Показать сообщения:    


Вы не можете начинать темы
Вы не можете отвечать на сообщения
Вы не можете редактировать свои сообщения
Вы не можете удалять свои сообщения
Вы не можете голосовать в опросах
Вы не можете прикреплять файлы к сообщениям
Вы можете скачивать файлы