Loading...
Error

Скачать Как я встретил вашу маму / How I Met Your Mother (сезон 09) (Памела Фрайман, Роб Гринбер) [2012, комедия, мелодрама, WEB-DL] [720p] [VO (Кураж-Бамбей)] торрент без регистрации

 
Статистика раздачи
Размер:  17,41 GB   |    Скачан:  5747 раз

Полного источника не было: 25 минут

 
Автор Сообщение

МихаНЕзатор

[] 

Как я встретил вашу маму
How I Met Your Mother


Год выпуска: 2013
Страна: США
Жанр: комедия, мелодрама
Режиссер: Памела Фрайман, Роб Гринберг
Продолжительность: ~ 00:22:00
Озвучка: Профессиональная (одноголосая, закадровая)Кураж-Бамбей
Перевод:SLIVAS, desertsunrise
Субтитры: английские

В ролях: Джош Рэднор, Джейсон Сигел, Коби Смолдерс, Нил Патрик Харрис, Элисон Хэннигэн

Описание: Как я встретил вашу маму комедия про Теда и про то, как он влюбился. Все неприятности начинаются с того, что лучший друг Теда, Маршалл вдруг неожиданно сообщил, что он хочет сделать предложение своей давней подруге, Лили, воспитательнице детского сада. К тому времени Тед понимает, что ему нужно прилагать больше усилий, если он действительно надеется найти свою настоящую любовь. Помогает ему в этих поисках его друг Барни, убежденный холостяк, вечно со своим, иногда чересчур, мнением на все происходящее, со склонностью к костюмам и верным способом познакомиться с девушками. Когда Тед встречает Робин, он решает, что это любовь с первого взгляда, но у судьбы в запасе есть кое-что еще.

Скачать: Семпл

Качество: WEB-DL 720p
Формат: MKV
Видео кодек: H.264
Аудио кодек: AC3
Видео: 1280x718, 23.976 fps, ~4000 kbps avg, 0,18 bit/pixel
Аудио RUS: AC3, 48 kHz, 6 ch, 384 kbps
Аудио ENG: AC3, 48 kHz, 6 ch, 384 kbps

07.04.2014 г. торент обновлён, добавлена 8-24 серия!

Общее
Уникальный идентификатор : 188421525369928297472871632913755963257 (0x8DC0AA7110292231B1E3451986F67F79)
Полное имя : I:How.I.Met.Your.Mother.S09.720p.WEB-DL.Rus.Eng.HDCLUBHow.I.Met.Your.Mother.S09E01.720p.WEB-DL.Rus.Eng.HDCLUB.mkv
Формат : Matroska
Версия формата : Version 4 / Version 2
Размер файла : 747 Мбайт
Продолжительность : 21 м.
Общий поток : 4837 Кбит/сек
Название фильма : How I Met Your Mother 9x01 (2013) - Release for HDCLUB
Дата кодирования : UTC 2013-09-28 12:19:12
Программа кодирования : mkvmerge v6.3.0 ('You can't stop me!') built on Jun 28 2013 20:09:41
Библиотека кодирования : libebml v1.3.0 + libmatroska v1.4.0

Видео
Идентификатор : 1
Формат : AVC
Формат/Информация : Advanced Video Codec
Профиль формата : High@L3.1
Параметр CABAC формата : Нет
Параметр ReFrames формата : 2 кадра
Идентификатор кодека : V_MPEG4/ISO/AVC
Продолжительность : 21 м.
Битрейт : 3972 Кбит/сек
Ширина : 1280 пикселей
Высота : 718 пикселей
Соотношение сторон : 16:9
Режим частоты кадров : Постоянный
Частота кадров : 23,976 кадра/сек
Цветовое пространство : YUV
Субдискретизация насыщенности : 4:2:0
Битовая глубина : 8 бит
Тип развёртки : Прогрессивная
Бит/(Пиксели*Кадры) : 0.180
Размер потока : 614 Мбайт (82%)
Заголовок : How I Met Your Mother 9x01: The Locket - Release for HDCLUB
Язык : English
Default : Да
Forced : Нет
Основные цвета : BT.709
Характеристики трансфера : BT.709
Коэффициенты матрицы : BT.709

Аудио #1
Идентификатор : 2
Формат : AC-3
Формат/Информация : Audio Coding 3
Расширение режима : CM (complete main)
Параметр Endianness формата : Big
Идентификатор кодека : A_AC3
Продолжительность : 21 м.
Вид битрейта : Постоянный
Битрейт : 384 Кбит/сек
Каналы : 6 каналов
Расположение каналов : Front: L C R, Side: L R, LFE
Частота : 48,0 КГц
Битовая глубина : 16 бит
Метод сжатия : С потерями
Размер потока : 59,3 Мбайт (8%)
Язык : Russian
Default : Да
Forced : Нет

Аудио #2
Идентификатор : 3
Формат : AC-3
Формат/Информация : Audio Coding 3
Расширение режима : CM (complete main)
Параметр Endianness формата : Big
Идентификатор кодека : A_AC3
Продолжительность : 21 м.
Вид битрейта : Постоянный
Битрейт : 384 Кбит/сек
Каналы : 6 каналов
Расположение каналов : Front: L C R, Side: L R, LFE
Частота : 48,0 КГц
Битовая глубина : 16 бит
Метод сжатия : С потерями
Размер потока : 59,3 Мбайт (8%)
Язык : English
Default : Нет
Forced : Нет

Текст
Идентификатор : 4
Формат : UTF-8
Идентификатор кодека : S_TEXT/UTF8
Идентификатор кодека/Информация : UTF-8 Plain Text
Язык : English
Default : Нет
Forced : Нет



Скачать Как.я.встретил.вашу.маму.How.I.Met.Your.Mother.(сезон.09).(Памела.Фрайман.Роб.Гринбер).[2012.комедия.мелодрама.WEB-DL].[720p].[VO.(Кураж-Бамбей)].torrent без регистрации
Золото ЗОЛОТАЯ РАЗДАЧА! СКАЧАННОЕ НЕ ЗАСЧИТЫВАЕТСЯ! Золото
Дата: Зарегистрирован   [ Тип: внутренний ] Как тут cкачать?
MAGNET ссылка
MAGNET ссылка


Скачать .torrent

46 KB

Статус: проверено DHT
Скачан: торрент - 5747 раз, раздача полностью - 43 раз
Размер: 17,41 GB
Оценка:  - (Голосов: 0)
Поблагодарили: 2
Поделиться ссылкой на эту раздачу с друзьями:
В контактеFacebookОдноклассникиTwitterLivejournalМой МирLiveinternet
 

 

DemonMc

[] 

А когда восьмая серия будет?
 

МихаНЕзатор

[] 

Раздача обновлена
 
Показать сообщения:    


Вы не можете начинать темы
Вы не можете отвечать на сообщения
Вы не можете редактировать свои сообщения
Вы не можете удалять свои сообщения
Вы не можете голосовать в опросах
Вы не можете прикреплять файлы к сообщениям
Вы можете скачивать файлы