Loading...
Error

Скачать Преступные связи / Gang Related (Джим Кауф) [1997, драма, криминал, DVDRip-AVC] [MVO]+[AVO]+[VO]+[Eng] торрент без регистрации

 
Статистика раздачи
Размер:  2,12 GB   |    Скачан:  176 раз
Сидов:  1  [  0 KB/s  ]  
 
Автор Сообщение

serg7628

[] 

«Some cops play by the rules. Their own.»
Информация о фильме
Год выхода: 1997
Страна: США / Orion Pictures Corporation, Kouf/Bigelow Productions
Жанр: драма, криминал
Продолжительность: 01:51:26
Перевод: Проф. многоголосый (закадровый), Авторский одноголосый (Юрий Сербин), Любительский одноголосый (Михаил Яроцкий ''Kyberpunk'') + Оригинал (английский)
Субтитры: Английские
Режиссер: Джим Кауф
В ролях: Джеймс Белуши, Тупак Шакур, Лила Рошон, Деннис Куэйд, Джеймс Эрл Джонс, Дэвид Пэймер, Венди Крюсон, Гэри Коул, Терренс «Т.К.» Карсон, Брэд Гринквист
О фильме: Детективы Да Винчи и Родригес, крутые уличные сыщики, под прикрытием полицейских жетонов организовали в городе мощную подпольную сеть наркоторговли. Они действуют просто: находят покупателя, проворачивают с ним сделку, а затем убивают, оставляя себе деньги и товар.
После этого аферисты ищут новую жертву, списав смерть клиента на бандитские разборки. Дела идут хорошо, пока не выясняется, что один из убитых — агент комитета по борьбе с наркотиками, работавший под прикрытием. Убийц необходимо найти, и детективы рьяно берутся за дело, решив свалить ответственность за свое злодейство на единственного человека в городе, чей секрет еще страшнее, чем их собственный.
И теперь, когда разоблачительные тиски правды начинают сжиматься, Да Винчи и Родригес должны пойти на самый рискованный и хитроумный обман в своей жизни.

Рейтинг R - Детям до 17 лет обязательно присутствие родителей
Файл
Формат: MKV
Кодек: x264
Качество: DVDRip-AVC (DVD5)
Видео: 716x368 @ 848x368 (2:35), 23,976 fps, ~1140 kbps (crf), 0.180 bit/pixel
Аудио #1: Русский, AC3, 6 chnls, 448 kbps | MVO
Аудио #2: Русский, AC3, 2 chnls, 192 kbps | AVO, Ю. Сербин
Аудио #3: Русский, AC3, 6 chnls, 448 kbps | VO, М. Яроцкий ''Kyberpunk'' (ненормативная лексика)
Аудио #4: Английский, AC3, 6 chnls, 448 kbps | Original
General
Unique ID : 241357415144964475408407455727620955824 (0xB593BF4FE3931D14B466621EB0CB9EB0)
Complete name : Gang.Related.1997.{am}.848.3xRus.Eng.mkv
Format : Matroska
Format version : Version 4 / Version 2
File size : 2.12 GiB
Duration : 1h 51mn
Overall bit rate : 2 728 Kbps
Movie name : GANG RELATED (1997) - Rip by -{am}-
Encoded date : UTC 2010-02-22 21:41:31
Writing application : mkvmerge v5.9.0 ('On The Loose') built on Dec 9 2012 15:37:01
Writing library : libebml v1.3.0 + libmatroska v1.4.0
Attachment : Yes

Video
ID : 1
Format : AVC
Format/Info : Advanced Video Codec
Format profile : High@L4.1
Format settings, CABAC : Yes
Format settings, ReFrames : 6 frames
Codec ID : V_MPEG4/ISO/AVC
Duration : 1h 51mn
Bit rate : 1 138 Kbps
Width : 716 pixels
Height : 368 pixels
Display aspect ratio : 2.35:1
Original display aspect ratio : 2.35:1
Frame rate mode : Constant
Frame rate : 23.976 fps
Color space : YUV
Chroma subsampling : 4:2:0
Bit depth : 8 bits
Scan type : Progressive
Bits/(Pixel*Frame) : 0.180
Stream size : 907 MiB (42%)
Title : Gang.Related.1997.{am}.848.3xRus.Eng
Writing library : x264 core 129 r2245+729M 1a52e03
Encoding settings : cabac=1 / ref=6 / deblock=1:0:0 / analyse=0x3:0x113 / me=umh / subme=11 / psy=1 / fade_compensate=0.00 / psy_rd=1.00:0.00 / mixed_ref=1 / me_range=32 / chroma_me=1 / trellis=2 / 8x8dct=1 / cqm=0 / deadzone=21,11 / fast_pskip=0 / chroma_qp_offset=-2 / threads=12 / lookahead_threads=1 / sliced_threads=0 / nr=0 / decimate=1 / interlaced=0 / bluray_compat=0 / constrained_intra=0 / fgo=0 / bframes=6 / b_pyramid=2 / b_adapt=2 / b_bias=0 / direct=3 / weightb=1 / open_gop=0 / weightp=2 / keyint=240 / keyint_min=23 / scenecut=40 / intra_refresh=0 / rc_lookahead=60 / rc=crf / mbtree=1 / crf=15.0 / qcomp=0.60 / qpmin=16 / qpmax=51 / qpstep=2 / vbv_maxrate=62500 / vbv_bufsize=50000 / crf_max=0.0 / nal_hrd=none / ip_ratio=1.40 / aq=2:1.00 / zones=153736,160322,q=30
Language : English
Default : Yes
Forced : No

Audio #1
ID : 2
Format : AC-3
Format/Info : Audio Coding 3
Mode extension : CM (complete main)
Format settings, Endianness : Big
Codec ID : A_AC3
Duration : 1h 51mn
Bit rate mode : Constant
Bit rate : 448 Kbps
Channel count : 6 channels
Channel positions : Front: L C R, Side: L R, LFE
Sampling rate : 48.0 KHz
Bit depth : 16 bits
Compression mode : Lossy
Delay relative to video : 7s 500ms
Stream size : 357 MiB (16%)
Title : MVO
Language : Russian
Default : Yes
Forced : No

Audio #2
ID : 3
Format : AC-3
Format/Info : Audio Coding 3
Format profile : Dolby Digital
Mode extension : CM (complete main)
Format settings, Endianness : Big
Codec ID : A_AC3
Duration : 1h 51mn
Bit rate mode : Constant
Bit rate : 192 Kbps
Channel count : 2 channels
Channel positions : Front: L R
Sampling rate : 48.0 KHz
Bit depth : 16 bits
Compression mode : Lossy
Stream size : 153 MiB (7%)
Title : AVO, Юрий Сербин
Language : Russian
Default : No
Forced : No

Audio #3
ID : 4
Format : AC-3
Format/Info : Audio Coding 3
Mode extension : CM (complete main)
Format settings, Endianness : Big
Codec ID : A_AC3
Duration : 1h 51mn
Bit rate mode : Constant
Bit rate : 448 Kbps
Channel count : 6 channels
Channel positions : Front: L C R, Side: L R, LFE
Sampling rate : 48.0 KHz
Bit depth : 16 bits
Compression mode : Lossy
Delay relative to video : 7s 500ms
Stream size : 357 MiB (16%)
Title : VO, Kyberpunk
Language : Russian
Default : No
Forced : No

Audio #4
ID : 5
Format : AC-3
Format/Info : Audio Coding 3
Mode extension : CM (complete main)
Format settings, Endianness : Big
Codec ID : A_AC3
Duration : 1h 51mn
Bit rate mode : Constant
Bit rate : 448 Kbps
Channel count : 6 channels
Channel positions : Front: L C R, Side: L R, LFE
Sampling rate : 48.0 KHz
Bit depth : 16 bits
Compression mode : Lossy
Stream size : 357 MiB (16%)
Title : Orginal
Language : English
Default : No
Forced : No

Text
ID : 6
Format : UTF-8
Codec ID : S_TEXT/UTF8
Codec ID/Info : UTF-8 Plain Text
Title : SRT
Language : English
Default : Yes
Forced : No




Скачать Преступные.связи.Gang.Related.(Джим.Кауф).[1997.драма.криминал.DVDRip-AVC].[MVO]+[AVO]+[VO]+[Eng].torrent без регистрации
Золото ЗОЛОТАЯ РАЗДАЧА! СКАЧАННОЕ НЕ ЗАСЧИТЫВАЕТСЯ! Золото
Дата: Зарегистрирован   [ Тип: внутренний ] Как тут cкачать?
MAGNET ссылка
MAGNET ссылка


Скачать .torrent

11 KB

Статус: проверено DHT
Скачан: торрент - 176 раз, раздача полностью - 14 раз
Размер: 2,12 GB
Оценка:  - (Голосов: 0)
Поблагодарили: 5
Поделиться ссылкой на эту раздачу с друзьями:
В контактеFacebookОдноклассникиTwitterLivejournalМой МирLiveinternet
 

 
Показать сообщения:    


Вы не можете начинать темы
Вы не можете отвечать на сообщения
Вы не можете редактировать свои сообщения
Вы не можете удалять свои сообщения
Вы не можете голосовать в опросах
Вы не можете прикреплять файлы к сообщениям
Вы можете скачивать файлы