Loading...
Error

Скачать Уайтчепел / Whitechapel (Сезон 04, серии 01-06 из 06) (Джон Ист, Дэниэл Неттхейм) [2013, триллер, криминал, детектив, HDTVRip] [720p] [MVO] (AlexFilm) торрент без регистрации

 
Статистика раздачи
Размер:  7,37 GB   |    Скачан:  154 раза
Сидов:  1  [  0 KB/s  ]  
 
Автор Сообщение

leon030982

[] 


Уайтчепел / Whitechapel

4 сезон, 1-5 серии

Год выпуска: 2013
Страна: Великобритания
Жанр: триллер, криминал, детектив
Продолжительность: 6 x ~ 00:45:00
Перевод: профессиональный (многоголосый, закадровый) (AlexFilm)
Cубтитры: нет
Cценаристы: Бен Корт, Кэролайн Ип, Стив Пембертон

Режиссеры: Джон Ист, Дэниэл Неттхейм

В ролях: Руперт Пенри-Джонс, Филип Дэвис, Стив Пембертон, Сэм Стокман, Клэр Рашбрук, Бен Бишоп, Ханна Уолтерс, Дэйзи Бомонт, Дэвид Гант, Брайан Протеро, Дэмиэн Дудкевич, Анджела Плезенс, Том Бирд
Описание: Продолжение детектива в мрачных антуражах лондонского Уайтчепела, где инспектор Джозеф Чандлер, сержант Рэй "Скип" Майлс и историк-консультант Эдвард Бакан разгадывают новые страшные загадки наших дней, переплетённые с кровавыми преступлениями прошлого.
Релиз:
Перевод: Vipere
Монтаж и сведение звука: Сергей Мартынов
Роли озвучивали:Анастасия Флигина
Татьяна Манетина
Михаил Суслов
Роман Сопко
Константин Погодаев

Качество: HDTVRip 720p
Формат: MKV
Видео кодек: x264
Аудио кодек: AC3
Видео: 1280х720 (16:9), 25 fps, MPEG-4 AVC ~3500 Kbps, 0.152 bit/pixel
Аудио Rus: 48 kHz, AC3 Dolby Digital, 2/0 (L,R) ch, ~192.00 kbps avg
Аудио Eng: 48 kHz, AC3 Dolby Digital, 2/0 (L,R) ch, ~192.00 kbps avg
Format : Matroska
Format version : Version 2
File size : 1.21 GiB
Duration : 44mn 37s
Overall bit rate : 3 887 Kbps
Movie name : Whitechapel 4x01 @ AlexFilm
Encoded date : UTC 2013-10-21 01:52:58
Writing application : mkvmerge v5.4.0 ('Piper') built on Mar 10 2012 13:34:39
Writing library : libebml v1.2.3 + libmatroska v1.3.0
Video
ID : 1
Format : AVC
Format/Info : Advanced Video Codec
Format profile : High@L4.1
Format settings, CABAC : Yes
Format settings, ReFrames : 9 frames
Codec ID : V_MPEG4/ISO/AVC
Duration : 44mn 37s
Bit rate : 3 500 Kbps
Width : 1 280 pixels
Height : 720 pixels
Display aspect ratio : 16:9
Frame rate mode : Constant
Frame rate : 25.000 fps
Color space : YUV
Chroma subsampling : 4:2:0
Bit depth : 8 bits
Scan type : Progressive
Bits/(Pixel*Frame) : 0.152
Stream size : 1.07 GiB (88%)
Writing library : x264 core 138 r2358 9e941d1
Encoding settings : cabac=1 / ref=9 / deblock=1:-3:-3 / analyse=0x3:0x113 / me=umh / subme=10 / psy=1 / psy_rd=1.00:0.20 / mixed_ref=1 / me_range=32 / chroma_me=1 / trellis=2 / 8x8dct=1 / cqm=0 / deadzone=21,11 / fast_pskip=0 / chroma_qp_offset=-3 / threads=6 / lookahead_threads=1 / sliced_threads=0 / nr=0 / decimate=1 / interlaced=0 / bluray_compat=0 / constrained_intra=0 / bframes=8 / b_pyramid=2 / b_adapt=2 / b_bias=0 / direct=3 / weightb=1 / open_gop=0 / weightp=2 / keyint=250 / keyint_min=25 / scenecut=40 / intra_refresh=0 / rc_lookahead=60 / rc=2pass / mbtree=1 / bitrate=3500 / ratetol=1.0 / qcomp=0.60 / qpmin=0 / qpmax=69 / qpstep=4 / cplxblur=20.0 / qblur=0.5 / ip_ratio=1.40 / aq=1:1.00
Language : English
Default : Yes
Forced : No
Audio #1
ID : 2
Format : AC-3
Format/Info : Audio Coding 3
Mode extension : CM (complete main)
Format settings, Endianness : Big
Codec ID : A_AC3
Duration : 44mn 37s
Bit rate mode : Constant
Bit rate : 192 Kbps
Channel(s) : 2 channels
Channel positions : Front: L R
Sampling rate : 48.0 KHz
Bit depth : 16 bits
Compression mode : Lossy
Stream size : 61.3 MiB (5%)
Title : DD2.0 AlexFilm
Language : Russian
Default : Yes
Forced : No
Audio #2
ID : 3
Format : AC-3
Format/Info : Audio Coding 3
Mode extension : CM (complete main)
Format settings, Endianness : Big
Codec ID : A_AC3
Duration : 44mn 37s
Bit rate mode : Constant
Bit rate : 192 Kbps
Channel(s) : 2 channels
Channel positions : Front: L R
Sampling rate : 48.0 KHz
Bit depth : 16 bits
Compression mode : Lossy
Stream size : 61.3 MiB (5%)
Title : DD2.0 Original
Language : English
Default : No
Forced : No
Внимание! Раздача ведётся путём добавления новых серий; при каждом добавлении создётся новый торрент. Чтобы начать докачку новой серии, пользователям необходимо сделать следующее:
(1) остановить скачивание,
(2) удалить старый торрент у себя из клиента (старые серии удалять не надо),
(3) скачать новый торрент и запустить его у себя в клиенте вместо старого, при этом указать клиенту путь в старую папку куда и должно происходить скачивание новых серий.
Ваш клиент при этом должен произвести хеширование (проверку) старой папки (если не производит сам - помогите ему сделать это), и будет докачивать только те серии которых у вас ещё нет. Старые серии при этом не удаляются, а продолжают раздаваться!
Eсли вы уже удалили старые серии, то предотвратить повторную закачку старых серий можно, отжав галочку в соответсвующих местах при запуске нового торрента. По возможности, желательно не удалять старые серии как можно дольше, чтобы релизёр не столько продолжал раздавать старые серии, а смог сконцентрироваться на новых.



Скачать Уайтчепел.Whitechapel.(Сезон.04.серии.01-06.из.06).(Джон.Ист.Дэниэл.Неттхейм).[2013.триллер.криминал.детектив.HDTVRip].[720p].[MVO].(AlexFilm).torrent без регистрации
Золото ЗОЛОТАЯ РАЗДАЧА! СКАЧАННОЕ НЕ ЗАСЧИТЫВАЕТСЯ! Золото
Дата: Зарегистрирован   [ Тип: внутренний ] Как тут cкачать?
MAGNET ссылка
MAGNET ссылка


Скачать .torrent

38 KB

Статус: проверено DHT
Скачан: торрент - 154 раз, раздача полностью - 53 раз
Размер: 7,37 GB
Оценка:  5 (Голосов: 1)
Поблагодарили: 2
Поделиться ссылкой на эту раздачу с друзьями:
В контактеFacebookОдноклассникиTwitterLivejournalМой МирLiveinternet
 

 

leon030982

[] 

5-я серия az
 

leon030982

[] 

добавлен финальный эпизод сезона az
 
Показать сообщения:    


Вы не можете начинать темы
Вы не можете отвечать на сообщения
Вы не можете редактировать свои сообщения
Вы не можете удалять свои сообщения
Вы не можете голосовать в опросах
Вы не можете прикреплять файлы к сообщениям
Вы можете скачивать файлы