Loading...
Error

Скачать Смешная девчонка / Funny Girl (Уильям Уайлер) [1968, мюзикл, драма, мелодрама, комедия, биография, BDRip-AVC] [Dub]+[Original] торрент без регистрации

 
Статистика раздачи
Размер:  2,74 GB   |    Скачан:  120 раз
Сидов:  1  [  0 KB/s  ]  
 
Автор Сообщение

МихаНЕзатор

[] 

Страна: США
Жанр: мюзикл, драма, мелодрама, комедия, биография
Год выпуска: 1968
Продолжительность: 02:35:17
Перевод: Советский дубляж + Оригинальный
Субтитры: русские (На песни), английские, английские (SDH).
Режиссер: Уильям Уайлер / William Wyler
В ролях: Барбра Стрейзанд (Fanny Brice), Омар Шариф (Nick Arnstein), Кэй Медфорд (Rose Brice), Энн Френсис (Georgia James), Уолтер Пиджон (Florenz Ziegfeld), Ли Аллен (Eddie Ryan), Мэй Куэстел (Mrs. Strakosh), Джералд Мор (Branca), Фрэнк Фэйлен (Keeney), Митти Лоуренс (Emma), Гертруда Флинн (Mrs. O'Malley), Пенни Сантон (Mrs. Meeker)
Дублёры: Клавдия Кузьмина (Fanny Brice), Владимир Сошальский (Nick Arnstein), Нина Никитина (Rose Brice), Серафима Холина (Georgia James), Алексей Полевой (Florenz Ziegfeld), Юрий Саранцев (Eddie Ryan), Вера Енютина (Mrs. Strakosh), Владимир Балашов (Branca), Константин Тыртов (Keeney), Антонина Кончакова (Emma)
Описание: На пути к славе и успеху, Фанни Брайс пришлось пройти от гадкого утенка до прекрасного лебедя. На сцене она - звезда, охапки роз падают к ногам, зал взрывается овациями.
Но за эти упоительные, волшебные секунды ей приходится расплачиваться горькими, одинокими ночами, полными слез и ревности.

MPAA: G - Нет возрастных ограничений

Качество: BDRip
Контейнер: MKV

Видео: AVC, 1024x436 (2.35:1), 1890 kbps, 23.976 fps, 0.177 bpp
Аудио 1: русский / AC3 / 2.0 / 48 kHz / 192 kbps
Аудио 2: английский / AC3 / 5.0 / 48 kHz / 448 kbps
Навигация по главам: есть

------------------------------------------------------------------

x264 [info]: frame I:61 Avg QP:17.46 size: 53375
x264 [info]: frame P:1025 Avg QP:21.08 size: 14376
x264 [info]: frame B:1464 Avg QP:21.16 size: 4834

------------------------------------------------------------------

Format : Matroska
Format version : Version 2
File size : 2.74 GiB
Duration : 2h 35mn
Overall bit rate : 2 530 Kbps
Movie name : = Смешная девчонка / Funny Girl BDRip by SC Kosmos =
Encoded date : UTC 2013-10-24 20:44:56
Writing application : mkvmerge v5.3.0 ('I could have danced') built on Feb 9 2012 10:38:07
Writing library : libebml v1.2.3 + libmatroska v1.3.0

Video
ID : 1
Format : AVC
Format/Info : Advanced Video Codec
Format profile : High@L4.1
Format settings, CABAC : Yes
Format settings, ReFrames : 10 frames
Codec ID : V_MPEG4/ISO/AVC
Duration : 2h 35mn
Bit rate : 1 890 Kbps
Width : 1 024 pixels
Height : 436 pixels
Display aspect ratio : 2.35:1
Frame rate : 23.976 fps
Color space : YUV
Chroma subsampling : 4:2:0
Bit depth : 8 bits
Scan type : Progressive
Bits/(Pixel*Frame) : 0.177
Stream size : 2.00 GiB (73%)
Title : Смешная девчонка / Funny Girl BDRip by SC Kosmos
Writing library : x264 core 138 r2358 9e941d1
Encoding settings : cabac=1 / ref=10 / deblock=1:-2:-2 / analyse=0x3:0x113 / me=umh / subme=11 / psy=1 / psy_rd=1.00:0.00 / mixed_ref=1 / me_range=48 / chroma_me=1 / trellis=2 / 8x8dct=1 / cqm=0 / deadzone=21,11 / fast_pskip=0 / chroma_qp_offset=-2 / threads=12 / lookahead_threads=1 / sliced_threads=0 / nr=0 / decimate=1 / interlaced=0 / bluray_compat=0 / constrained_intra=0 / bframes=10 / b_pyramid=2 / b_adapt=1 / b_bias=0 / direct=1 / weightb=1 / open_gop=0 / weightp=2 / keyint=240 / keyint_min=23 / scenecut=40 / intra_refresh=0 / rc_lookahead=40 / rc=2pass / mbtree=0 / bitrate=1890 / ratetol=1.0 / qcomp=0.60 / qpmin=0 / qpmax=69 / qpstep=4 / cplxblur=20.0 / qblur=0.5 / vbv_maxrate=50000 / vbv_bufsize=50000 / nal_hrd=none / ip_ratio=1.40 / pb_ratio=1.30 / aq=1:1.00
Language : English
Default : Yes
Forced : No

Audio #1
ID : 2
Format : AC-3
Format/Info : Audio Coding 3
Mode extension : CM (complete main)
Codec ID : A_AC3
Duration : 2h 35mn
Bit rate mode : Constant
Bit rate : 192 Kbps
Channel(s) : 2 channels
Channel positions : Front: L R
Sampling rate : 48.0 KHz
Bit depth : 16 bits
Compression mode : Lossy
Stream size : 213 MiB (8%)
Title : Дубляж
Language : Russian
Default : Yes
Forced : No

Audio #2
ID : 3
Format : AC-3
Format/Info : Audio Coding 3
Mode extension : CM (complete main)
Codec ID : A_AC3
Duration : 2h 35mn
Bit rate mode : Constant
Bit rate : 448 Kbps
Channel(s) : 5 channels
Channel positions : Front: L C R, Side: L R
Sampling rate : 48.0 KHz
Bit depth : 16 bits
Compression mode : Lossy
Stream size : 498 MiB (18%)
Language : English
Default : No
Forced : No

Text #1
ID : 4
Format : UTF-8
Codec ID : S_TEXT/UTF8
Codec ID/Info : UTF-8 Plain Text
Title : На песни
Language : Russian
Default : Yes
Forced : No

Text #2
ID : 5
Format : UTF-8
Codec ID : S_TEXT/UTF8
Codec ID/Info : UTF-8 Plain Text
Language : English
Default : No
Forced : No

Text #3
ID : 6
Format : UTF-8
Codec ID : S_TEXT/UTF8
Codec ID/Info : UTF-8 Plain Text
Title : SDH
Language : English
Default : No
Forced : No

Menu
00:00:00.000 : en:00:00:00.000
00:11:45.914 : en:00:11:45.914
00:21:54.104 : en:00:21:54.104
00:27:34.695 : en:00:27:34.695
00:35:25.415 : en:00:35:25.415
00:50:45.084 : en:00:50:45.084
00:58:35.137 : en:00:58:35.137
01:07:20.703 : en:01:07:20.703
01:16:02.141 : en:01:16:02.141
01:24:43.578 : en:01:24:43.578
01:37:02.233 : en:01:37:02.233
01:44:15.624 : en:01:44:15.624
01:55:44.312 : en:01:55:44.312
02:05:52.628 : en:02:05:52.628
02:16:53.956 : en:02:16:53.956
02:24:46.595 : en:02:24:46.595

Огромное спасибо: Киноклуб "Феникс", _Polinka_, lange97, vova68, gaidai62, iraabr.



Скачать Смешная.девчонка.Funny.Girl.(Уильям.Уайлер).[1968.мюзикл.драма.мелодрама.комедия.биография.BDRip-AVC].[Dub]+[Original].torrent без регистрации
Золото ЗОЛОТАЯ РАЗДАЧА! СКАЧАННОЕ НЕ ЗАСЧИТЫВАЕТСЯ! Золото
Дата: Зарегистрирован   [ Тип: внутренний ] Как тут cкачать?
MAGNET ссылка
MAGNET ссылка


Скачать .torrent

14 KB

Статус: проверено DHT
Скачан: торрент - 120 раз, раздача полностью - 12 раз
Размер: 2,74 GB
Оценка:  - (Голосов: 0)
Поблагодарили: 1
Поделиться ссылкой на эту раздачу с друзьями:
В контактеFacebookОдноклассникиTwitterLivejournalМой МирLiveinternet
 

 
Показать сообщения:    


Вы не можете начинать темы
Вы не можете отвечать на сообщения
Вы не можете редактировать свои сообщения
Вы не можете удалять свои сообщения
Вы не можете голосовать в опросах
Вы не можете прикреплять файлы к сообщениям
Вы можете скачивать файлы