Loading...
Error

Скачать Царство / Reign (сезон 01) (Мэттью Хатингс, Брэд Силберлинг) [2013, фэнтези, драма, WEB-DLRip] [MVO (Amedia)] торрент без регистрации

 
Статистика раздачи
Размер:  14,09 GB   |    Скачан:  2441 раз
Сидов:  1  [  0 KB/s  ]  
 
Автор Сообщение

МихаНЕзатор

[] 

Информация о фильме
Название: Царство
Оригинальное название: Reign
Год выхода: 2013
Жанр: фэнтези, драма
Режиссер: Мэттью Хатингс, Брэд Силберлинг

В ролях: Аделаида Кейн, Тоби Регбо, Торранс Кумбс, Меган Фоллоуз, Алан Ван Спрэнг, Селина Синден, Кэйтлин Стэйси, Анна Попплуэлл

О фильме: Действия разворачиваются в период юности Королевы Шотландии Марии Стюарт, которая должна стать супругой принца Франциска, сына короля Генриха второго, чтобы укрепить политический союз между державами. Мария прибывает во Францию в сопровождении своих фрейлин и знакомится с будущим супругом. Принц явно не заинтересован в этом союзе и всячески пытается ему помешать, так как уже увлечен одной из дворцовых красавиц. Помимо всех интриг и заговоров на политическом уровне со стороны противников свадьбы, незаконнорожденный сын Короля, Бэш, также принимает меры, чтобы разбить пару помолвленных - Марии и Франциска.



Страна: США
Студия: CBS Television Studios, World 2000 Entertainment, Octagon Films
Продолжительность: 16 х 00:42:00
Перевод: Профессиональный многоголосый - Amedia

Файл
Кодек: XviD
Качество: WEB-DLRip
Видео: 720x400 (1.80:1), 23.976 fps, XviD build 50 ~1799 kbps avg, 0.26 bit/pixel
Звук: 48 kHz, AC3 Dolby Digital, 3/2 (L,C,R,l,r) + LFE ch, ~384.00 kbps avg
Субтитры: нет

АНОНСЫ ПОПУЛЯРНЫХ РАЗДАЧ


05.10.2014 г. торент обновлён, добавлена 22 серия!

Общее
Полное имя : K:Царство. 2013. WEB-DLRipЦарство. 2013. WEB-DLRip. 4 серия..avi
Формат : AVI
Формат/Информация : Audio Video Interleave
Размер файла : 646 Мбайт
Продолжительность : 41 м.
Общий поток : 2192 Кбит/сек
Программа кодирования : VirtualDubMod 1.5.10.3 | www.virtualdub-fr.org || (build 2550/release)
Библиотека кодирования : VirtualDubMod build 2550/release

Видео
Идентификатор : 0
Формат : MPEG-4 Visual
Профиль формата : Advanced Simple@L5
Параметр BVOP формата : 2
Параметр QPel формата : Нет
Параметр GMC формата : Без точки перехода
Параметр матрицы формата : Выборочная
Идентификатор кодека : XVID
Идентификатор кодека/Подсказка : XviD
Продолжительность : 41 м.
Битрейт : 1799 Кбит/сек
Ширина : 720 пикс.
Высота : 400 пикс.
Соотношение сторон : 16:9
Частота кадров : 23,976 кадр/сек
Цветовое пространство : YUV
Подвыборка цветности : 4:2:0
Битовая глубина : 8 бит
Тип развёртки : Прогрессивная
Метод сжатия : С потерями
Бит/(Пиксели*Кадры) : 0.261
Размер потока : 530 Мбайт (82%)
Библиотека кодирования : XviD 1.2.1 (UTC 2008-12-04)

Аудио
Идентификатор : 1
Формат : AC-3
Формат/Информация : Audio Coding 3
Расширение режима : CM (complete main)
Идентификатор кодека : 2000
Продолжительность : 41 м.
Вид битрейта : Постоянный
Битрейт : 384 Кбит/сек
Каналы : 6 каналов
Расположение каналов : Front: L C R, Side: L R, LFE
Частота : 48,0 КГц
Битовая глубина : 16 бит
Метод сжатия : С потерями
Размер потока : 113 Мбайт (18%)
Выравнивание : Разделение по промежуткам
Продолжительность промежутка : 42 мс. (1,00 видеокадр)
Время предзагрузки промежутка : 500 ms



Скачать Царство.Reign.(сезон.01).(Мэттью.Хатингс.Брэд.Силберлинг).[2013.фэнтези.драма.WEB-DLRip].[MVO.(Amedia)].torrent без регистрации
Золото ЗОЛОТАЯ РАЗДАЧА! СКАЧАННОЕ НЕ ЗАСЧИТЫВАЕТСЯ! Золото
Дата: Зарегистрирован   [ Тип: внутренний ] Как тут cкачать?
MAGNET ссылка
MAGNET ссылка


Скачать .torrent

38 KB

Статус: проверено DHT
Скачан: торрент - 2441 раз, раздача полностью - 78 раз
Размер: 14,09 GB
Оценка:  - (Голосов: 0)
Поблагодарили: 5
Поделиться ссылкой на эту раздачу с друзьями:
В контактеFacebookОдноклассникиTwitterLivejournalМой МирLiveinternet
 

 

МихаНЕзатор

[] 

Раздача обновлена
 
Показать сообщения:    


Вы не можете начинать темы
Вы не можете отвечать на сообщения
Вы не можете редактировать свои сообщения
Вы не можете удалять свои сообщения
Вы не можете голосовать в опросах
Вы не можете прикреплять файлы к сообщениям
Вы можете скачивать файлы