Loading...
Error

Скачать Звёздный крейсер Галактика / Battlestar Galactica (Cезоны 1-4, Минисерии (Лезвие, План)) (Майкл Раймер, Рональд Д. Мур и др.) [2003-2009, фантастика, HDTVRip] [720p] [MVO] торрент без регистрации

 
Статистика раздачи
Размер:  121,61 GB   |    Скачан:  156 раз
Сидов:  1  [  0 KB/s  ]  
 
Автор Сообщение

Bullit

[] 



Звездный крейсер Галактика / Battlestar Galactica (Cезоны 1, 2, 3, 4, Минисерии (Лезвие, План))





Год выпуска: 2003-2009
Страна: США
Жанр: Фантастика
Перевод: Профессиональный (многоголосый, закадровый) (Kravec) (ОРТ - 1 сезон) + Оригинал
Режиссеры:
Майкл Раймер, Рональд Д. Мур, Марита Грабиак, Аллан Кроекер, Род Харди, Серджио Мимика-Геззан, Роберт Янг, Бред Тернер, Эдвард Джеймс Олмос, Джефф Вулног, Джонас Пэйт
В ролях:
Эдвард Джеймс Олмос, Мери МакДоннелл, Кати Сакхофф, Джейми Бамбер, Джеймс Кейллис, Трисиа Хелфер, Грэйс Парк
Описание:
Третье тысячелетие… Космические полеты давно реальность... Люди создают Сайлонов - роботов с искусственным интеллектом, призванных помогать человеку. Сайлоны взбунтовались, была война. Люди победили, а Сайлоны исчезли в далеком космосе. 40 лет прошло и Сайлоны вернулись… Но у них теперь есть огромное преимущество - они создали новых роботов, как две капли воды похожих на Человека. Некоторые из них не знают, кто они, считая себя людьми. Сайлоны наносят бомбовые удары по всем планетам, населенным людьми, большинство населения уничтожено, выжить удалось нескольким пассажирским лайнерам и Боевому Крейсеру "Галактика". Теперь очередь Человечества спасаться в космосе от преследователей…

Качество: HDTVRip 720p
Формат: MKV
Видео кодек: MPEG-4/AVC (x264)
Аудио кодек: AC3, MP3
Видео:
1 сезон (Пилотные серии) - 1280x720, 23.976 fps, ~5755~7760 kbps
1 сезон (1-13 серии) - 1280x720, 23.976 fps, ~3650~3950 kbps
2 сезон (1-18 серии) - 1280x720, 23.976 fps, ~5350~5900 kbps
2 сезон (19-20 серии) - 1280x720, 23.976 fps, ~3400 kbps
3 сезон (1-19 серии) - 1280x720, 23.976 fps, ~2700~2900 kbps
3 сезон (20 серия) - 1280x720, 23.976 fps, ~3565 kbps
4 сезон (1-21 серии) - 1280x720, 23.976 fps, ~2900~3300 kbps
Лезвие - 1280x720, 23.976 fps, ~6720 kbps
План - 1280x720, 23.976 fps, ~3990 kbps
Аудио:
Пилотные серии - AC3 Русский 384 kbps, 48 kHz (Кравец) (ОРТ) AC3 English 640 kbps, 48 kHz
1 сезон - AC3 Русский 384 kbps, 48 kHz, 2 Ch (Кравец) AC3 English 640 kbps, 48 kHz, 6 Ch
2 сезон - AC3 Русский 384 kbps, 48 kHz, 2 Ch (Кравец) AC3 English 384 kbps, 48 kHz, 6 Ch
3 сезон - AC3 Русский 384 kbps, 48 kHz, 2 Ch (Кравец) AC3 English 224 kbps, 48 kHz, 6 Ch
4 сезон - MP3 Русский 128 kbps, 48 kHz, 2 Ch (Кравец) AC3 English 384 kbps, 48 kHz, 6 Ch
Лезвие - AC3 Русский 384 kbps, 48 kHz, 2 Ch (Кравец) AC3 English 384 kbps, 48 kHz, 6 Ch
План - MP3 Русский 128 kbps, 48 kHz (Кравец) DTS English 755 kbps, 48 kHz
Сэмпл
Список серий можно увидеть нажав на кнопку - список файлов... ;)

General
Unique ID : 214455976400407444811231079335261564265 (0xA156B7FAC5C2AD5F8E1C23EF3B7EED69)
Complete name : Z:\Battlestar Galactica (All)\Battlestar Galactica S01 (HD-DVD-Rip) (720p)\Battlestar.Galactica.-.S01P01.-.PGor.-.(HD.DVD-Rip.720p.x264.Russian.AC3-2.0.AC3-5.1.English.AC3-5.1).mkv
Format : Matroska
Format version : Version 1
File size : 4.58 GiB
Duration : 1h 34mn
Overall bit rate : 6 931 Kbps
Movie name : Battlestar Galactica S01P01 (The Miniseries. Part 1) HD DVDrip @ - PGor -
Encoded date : UTC 2009-01-05 18:39:10
Writing application : mkvmerge v2.2.0 ('Turn It On Again') built on Mar 4 2008 12:58:26
Writing library : libebml v0.7.7 + libmatroska v0.8.1

Video
ID : 1
Format : AVC
Format/Info : Advanced Video Codec
Format profile : Main@L5.1
Format settings, CABAC : Yes
Format settings, ReFrames : 8 frames
Codec ID : V_MPEG4/ISO/AVC
Duration : 1h 34mn
Bit rate : 5 385 Kbps
Nominal bit rate : 5 755 Kbps
Width : 1 280 pixels
Height : 720 pixels
Display aspect ratio : 16:9
Frame rate mode : Constant
Frame rate : 23.976 fps
Original frame rate : 25.000 fps
Color space : YUV
Chroma subsampling : 4:2:0
Bit depth : 8 bits
Scan type : Progressive
Bits/(Pixel*Frame) : 0.244
Stream size : 3.56 GiB (78%)
Title : Battlestar Galactica S01P01 (The Miniseries. Part 1) HD DVDrip @ KHPP
Writing library : x264 core 57 svn-709C
Encoding settings : cabac=1 / ref=5 / deblock=1:-2:-1 / analyse=0x1:0 / me=umh / fpel_cmp=sad / subme=6 / me-prepass=0 / brdo=1 / mixed_ref=1 / me_range=16 / chroma_me=1 / trellis=2 / 8x8dct=0 / cqm=0 / deadzone=21,11 / chroma_qp_offset=0 / threads=3 / nr=0 / decimate=0 / mbaff=0 / bframes=3 / b_pyramid=1 / b_adapt=1 / b_bias=0 / direct=3 / wpredb=1 / bime=1 / keyint=250 / keyint_min=25 / scenecut=40(pre) / rc=2pass / bitrate=5755 / ratetol=1.0 / rceq='blurCplx^(1-qComp)' / qcomp=0.60 / qpmin=10 / qpmax=51 / qpstep=4 / cplxblur=20.0 / qblur=0.5 / ip_ratio=1.40 / pb_ratio=1.30
Language : English
Default : Yes
Forced : No

Audio #1
ID : 2
Format : AC-3
Format/Info : Audio Coding 3
Mode extension : CM (complete main)
Format settings, Endianness : Big
Codec ID : A_AC3
Duration : 1h 34mn
Bit rate mode : Constant
Bit rate : 384 Kbps
Channel count : 2 channels
Channel positions : Front: L R
Sampling rate : 48.0 KHz
Bit depth : 16 bits
Compression mode : Lossy
Stream size : 260 MiB (6%)
Title : Dolby Digital AC3 2.0 @ 384 kbps (Kravec)
Language : Russian
Default : Yes
Forced : No

Audio #2
ID : 3
Format : AC-3
Format/Info : Audio Coding 3
Mode extension : CM (complete main)
Format settings, Endianness : Big
Codec ID : A_AC3
Duration : 1h 34mn
Bit rate mode : Constant
Bit rate : 384 Kbps
Channel count : 6 channels
Channel positions : Front: L C R, Side: L R, LFE
Sampling rate : 48.0 KHz
Bit depth : 16 bits
Compression mode : Lossy
Stream size : 260 MiB (6%)
Title : Dolby Digital AC3 5.1 @ 384 kbps
Language : Russian
Default : No
Forced : No

Audio #3
ID : 4
Format : AC-3
Format/Info : Audio Coding 3
Mode extension : CM (complete main)
Format settings, Endianness : Big
Codec ID : A_AC3
Duration : 1h 34mn
Bit rate mode : Constant
Bit rate : 640 Kbps
Channel count : 6 channels
Channel positions : Front: L C R, Side: L R, LFE
Sampling rate : 48.0 KHz
Bit depth : 16 bits
Compression mode : Lossy
Stream size : 433 MiB (9%)
Title : Dolby Digital AC3 5.1 @ 640 kbps
Language : English
Default : No
Forced : No

General
Unique ID : 184025172124067742966753731632982990582 (0x8A71F57DD80AB567BEDEB0E8AA051EF6)
Complete name : Z:\Battlestar Galactica (All)\Battlestar Galactica S01 (HD-DVD-Rip) (720p)\Battlestar.Galactica.-.S01E01.-.PGor.-.(HD.DVD-Rip.720p.x264.Russian.AC3-2.0.English.AC3-5.1).mkv
Format : Matroska
Format version : Version 1
File size : 1.46 GiB
Duration : 42mn 59s
Overall bit rate : 4 873 Kbps
Movie name : Battlestar Galactica S01E01 (33) HD DVDrip @ - PGor -
Encoded date : UTC 2008-02-01 21:52:40
Writing application : mkvmerge v2.1.0 ('Another Place To Fall') built on Aug 19 2007 13:40:07
Writing library : libebml v0.7.7 + libmatroska v0.8.1

Video
ID : 1
Format : AVC
Format/Info : Advanced Video Codec
Format profile : Main@L5.1
Format settings, CABAC : Yes
Format settings, ReFrames : 8 frames
Codec ID : V_MPEG4/ISO/AVC
Duration : 42mn 59s
Bit rate : 3 827 Kbps
Width : 1 280 pixels
Height : 720 pixels
Display aspect ratio : 16:9
Frame rate mode : Constant
Frame rate : 25.000 fps
Color space : YUV
Chroma subsampling : 4:2:0
Bit depth : 8 bits
Scan type : Progressive
Bits/(Pixel*Frame) : 0.166
Stream size : 1.13 GiB (77%)
Title : Battlestar Galactica S01E01 (33) HD DVDrip @ KHPP
Writing library : x264 core 57 svn-709C
Encoding settings : cabac=1 / ref=5 / deblock=1:-2:-1 / analyse=0x1:0 / me=umh / fpel_cmp=sad / subme=6 / me-prepass=0 / brdo=1 / mixed_ref=1 / me_range=16 / chroma_me=1 / trellis=2 / 8x8dct=0 / cqm=0 / deadzone=21,11 / chroma_qp_offset=0 / threads=3 / nr=0 / decimate=0 / mbaff=0 / bframes=3 / b_pyramid=1 / b_adapt=1 / b_bias=0 / direct=3 / wpredb=1 / bime=1 / keyint=250 / keyint_min=25 / scenecut=40(pre) / rc=2pass / bitrate=3827 / ratetol=1.0 / rceq='blurCplx^(1-qComp)' / qcomp=0.60 / qpmin=10 / qpmax=51 / qpstep=4 / cplxblur=20.0 / qblur=0.5 / ip_ratio=1.40 / pb_ratio=1.30
Language : English
Default : Yes
Forced : No

Audio #1
ID : 2
Format : AC-3
Format/Info : Audio Coding 3
Mode extension : CM (complete main)
Format settings, Endianness : Big
Codec ID : A_AC3
Duration : 42mn 59s
Bit rate mode : Constant
Bit rate : 384 Kbps
Channel count : 2 channels
Channel positions : Front: L R
Sampling rate : 48.0 KHz
Bit depth : 16 bits
Compression mode : Lossy
Stream size : 118 MiB (8%)
Title : Dolby Digital AC3 2.0 @ 384 kbps (Kravec)
Language : Russian
Default : Yes
Forced : No

Audio #2
ID : 3
Format : AC-3
Format/Info : Audio Coding 3
Mode extension : CM (complete main)
Format settings, Endianness : Big
Codec ID : A_AC3
Duration : 42mn 59s
Bit rate mode : Constant
Bit rate : 640 Kbps
Channel count : 6 channels
Channel positions : Front: L C R, Side: L R, LFE
Sampling rate : 48.0 KHz
Bit depth : 16 bits
Compression mode : Lossy
Stream size : 197 MiB (13%)
Title : Dolby Digital AC3 5.1 @ 640 kbps
Language : English
Default : No
Forced : No

General
Unique ID : 220057144903242217969706192744188981792 (0xA58D76E875A6451385169B84057BB220)
Complete name : Z:\Battlestar Galactica (All)\Battlestar Galactica S02 (HDTV) (720p)\Battlestar.Galactica.-.S02E01.-.PGor.-.(HDTV-Rip.720p.x264.Russian.AC3-2.0.English.AC3-5.1).Universal.HD.mkv
Format : Matroska
Format version : Version 1
File size : 2.02 GiB
Duration : 43mn 36s
Overall bit rate : 6 644 Kbps
Movie name : Battlestar Galactica S02E01 (Scattered) - Universal HD @ - PGor -
Encoded date : UTC 2008-04-20 07:34:44
Writing application : mkvmerge v2.2.0 ('Turn It On Again') built on Mar 4 2008 12:58:26
Writing library : libebml v0.7.7 + libmatroska v0.8.1

Video
ID : 1
Format : AVC
Format/Info : Advanced Video Codec
Format profile : High@L5.1
Format settings, CABAC : Yes
Format settings, ReFrames : 16 frames
Codec ID : V_MPEG4/ISO/AVC
Duration : 43mn 36s
Bit rate : 6 000 Kbps
Width : 1 280 pixels
Height : 720 pixels
Display aspect ratio : 16:9
Frame rate mode : Constant
Frame rate : 23.976 fps
Color space : YUV
Chroma subsampling : 4:2:0
Bit depth : 8 bits
Scan type : Progressive
Bits/(Pixel*Frame) : 0.272
Stream size : 1.75 GiB (86%)
Title : Battlestar Galactica S02E01 (Scattered) - Universal HD @ ripper unknown
Writing library : x264 core 44 svn-446
Encoding settings : cabac=1 / ref=16 / deblock=1:-2:-1 / analyse=0x3:0x133 / me=umh / subme=6 / brdo=1 / mixed_ref=1 / me_range=16 / chroma_me=1 / trellis=2 / 8x8dct=1 / cqm=0 / chroma_qp_offset=0 / slices=4 / nr=0 / bframes=3 / b_pyramid=1 / b_adapt=1 / b_bias=0 / direct=1 / wpredb=1 / bime=1 / keyint=250 / keyint_min=25 / scenecut=40 / rc=2pass / bitrate=6000 / ratetol=4.0 / rceq='blurCplx^(1-qComp)' / qcomp=0.40 / qpmin=10 / qpmax=51 / qpstep=4 / cplxblur=20.0 / qblur=0.5 / ip_ratio=1.40 / pb_ratio=1.30
Language : English
Default : Yes
Forced : No

Audio #1
ID : 2
Format : AC-3
Format/Info : Audio Coding 3
Mode extension : CM (complete main)
Format settings, Endianness : Big
Codec ID : A_AC3
Duration : 43mn 36s
Bit rate mode : Constant
Bit rate : 384 Kbps
Channel count : 2 channels
Channel positions : Front: L R
Sampling rate : 48.0 KHz
Bit depth : 16 bits
Compression mode : Lossy
Stream size : 120 MiB (6%)
Title : Dolby Digital AC3 2.0 @ 384 kbps (Kravec)
Language : Russian
Default : Yes
Forced : No

Audio #2
ID : 3
Format : AC-3
Format/Info : Audio Coding 3
Mode extension : CM (complete main)
Format settings, Endianness : Big
Codec ID : A_AC3
Duration : 43mn 36s
Bit rate mode : Constant
Bit rate : 384 Kbps
Channel count : 6 channels
Channel positions : Front: L C R, Side: L R, LFE
Sampling rate : 48.0 KHz
Bit depth : 16 bits
Compression mode : Lossy
Stream size : 120 MiB (6%)
Title : Dolby Digital AC3 5.1 @ 384 kbps
Language : English
Default : No
Forced : No

General
Unique ID : 179181834028648866753673484426891450124 (0x86CD2A7CA7F0B54BB5595BDE7903570C)
Complete name : Z:\Battlestar Galactica (All)\Battlestar Galactica S03 (HDTV) (720p)\Battlestar.Galactica.-.S03E01.-.PGor.-.(HDTV-Rip.720p.x264.Russian.English.AC3-2.0).Premiere.HD.mkv
Format : Matroska
Format version : Version 1
File size : 1.06 GiB
Duration : 44mn 49s
Overall bit rate : 3 393 Kbps
Movie name : Battlestar Galactica S03E01 (Occupation) - Premiere HD @ - PGor -
Encoded date : UTC 2008-04-27 21:58:37
Writing application : mkvmerge v2.2.0 ('Turn It On Again') built on Mar 4 2008 12:58:26
Writing library : libebml v0.7.7 + libmatroska v0.8.1

Video
ID : 1
Format : AVC
Format/Info : Advanced Video Codec
Format profile : High@L5.1
Format settings, CABAC : Yes
Format settings, ReFrames : 11 frames
Codec ID : V_MPEG4/ISO/AVC
Duration : 44mn 49s
Bit rate : 2 718 Kbps
Nominal bit rate : 2 901 Kbps
Width : 1 280 pixels
Height : 720 pixels
Display aspect ratio : 16:9
Frame rate mode : Constant
Frame rate : 23.976 fps
Original frame rate : 25.000 fps
Color space : YUV
Chroma subsampling : 4:2:0
Bit depth : 8 bits
Scan type : Progressive
Bits/(Pixel*Frame) : 0.123
Stream size : 871 MiB (80%)
Title : Battlestar Galactica S03E01 (Occupation) - Premiere HD @ KHPP
Writing library : x264 core 57 svn-709C
Encoding settings : cabac=1 / ref=8 / deblock=1:-2:-1 / analyse=0x3:0x133 / me=umh / fpel_cmp=sad / subme=7 / me-prepass=0 / brdo=1 / mixed_ref=1 / me_range=24 / chroma_me=1 / trellis=2 / 8x8dct=1 / cqm=0 / deadzone=21,11 / chroma_qp_offset=0 / threads=3 / nr=0 / decimate=0 / mbaff=0 / bframes=3 / b_pyramid=1 / b_adapt=1 / b_bias=0 / direct=3 / wpredb=1 / bime=1 / keyint=250 / keyint_min=25 / scenecut=40(pre) / rc=2pass / bitrate=2901 / ratetol=1.0 / rceq='blurCplx^(1-qComp)' / qcomp=0.60 / qpmin=10 / qpmax=51 / qpstep=4 / cplxblur=20.0 / qblur=0.5 / ip_ratio=1.40 / pb_ratio=1.30
Language : German
Default : Yes
Forced : No

Audio #1
ID : 2
Format : AC-3
Format/Info : Audio Coding 3
Mode extension : CM (complete main)
Format settings, Endianness : Big
Codec ID : A_AC3
Duration : 44mn 49s
Bit rate mode : Constant
Bit rate : 384 Kbps
Channel count : 2 channels
Channel positions : Front: L R
Sampling rate : 48.0 KHz
Bit depth : 16 bits
Compression mode : Lossy
Stream size : 123 MiB (11%)
Title : Dolby Digital AC3 2.0 @ 384 kbps (Kravec)
Language : Russian
Default : Yes
Forced : No

Audio #2
ID : 3
Format : AC-3
Format/Info : Audio Coding 3
Mode extension : CM (complete main)
Format settings, Endianness : Big
Codec ID : A_AC3
Duration : 44mn 49s
Bit rate mode : Constant
Bit rate : 224 Kbps
Channel count : 2 channels
Channel positions : Front: L R
Sampling rate : 48.0 KHz
Bit depth : 16 bits
Compression mode : Lossy
Stream size : 71.8 MiB (7%)
Title : Dolby Digital AC3 2.0 @ 224 kbps
Language : English
Default : No
Forced : No

General
Unique ID : 81528040288598796913819792222237412151 (0x3D55BABA9B7B126F5485A38C0F3ACB37)
Complete name : Z:\Battlestar Galactica (All)\Battlestar Galactica S04 (HDTV) (720p)\Battlestar.Galactica.-.S04E01.-.PGor.-.(HDTV-Rip.720p.x264.Russian.mp3-2.0.English.AC3-5.1).Sci.Fi.HD.mkv
Format : Matroska
File size : 1.11 GiB
Duration : 42mn 58s
Overall bit rate : 3 706 Kbps
Writing application : AVI-Mux GUI 1.17.7, Aug 8 2006 20:59:17
Writing library : matroska muxer by Alexander Noe, build date Aug 8 2006

Video
ID : 1
Format : AVC
Format/Info : Advanced Video Codec
Format profile : High@L5.1
Format settings, CABAC : Yes
Format settings, ReFrames : 4 frames
Codec ID : V_MPEG4/ISO/AVC
Duration : 42mn 58s
Bit rate : 3 190 Kbps
Width : 1 280 pixels
Height : 720 pixels
Display aspect ratio : 16:9
Frame rate mode : Constant
Frame rate : 19.139 fps
Original frame rate : 23.976 fps
Color space : YUV
Chroma subsampling : 4:2:0
Bit depth : 8 bits
Scan type : Progressive
Bits/(Pixel*Frame) : 0.181
Stream size : 959 MiB (84%)
Writing library : x264 core 58 r798 17e5dac
Encoding settings : cabac=1 / ref=4 / deblock=1:-2:-1 / analyse=0x3:0x133 / me=hex / subme=6 / brdo=1 / mixed_ref=0 / me_range=16 / chroma_me=1 / trellis=1 / 8x8dct=1 / cqm=0 / deadzone=21,11 / chroma_qp_offset=0 / threads=6 / nr=0 / decimate=1 / mbaff=0 / bframes=3 / b_pyramid=1 / b_adapt=1 / b_bias=0 / direct=3 / wpredb=1 / bime=1 / keyint=250 / keyint_min=25 / scenecut=40(pre) / rc=2pass / bitrate=3190 / ratetol=1.0 / rceq='blurCplx^(1-qComp)' / qcomp=0.60 / qpmin=10 / qpmax=51 / qpstep=4 / cplxblur=20.0 / qblur=0.5 / ip_ratio=1.40 / pb_ratio=1.30
Default : Yes
Forced : No

Audio #1
ID : 2
Format : MPEG Audio
Format version : Version 1
Format profile : Layer 3
Mode : Joint stereo
Mode extension : MS Stereo
Codec ID : A_MPEG/L3
Codec ID/Hint : MP3
Duration : 42mn 58s
Bit rate mode : Constant
Bit rate : 128 Kbps
Channel count : 2 channels
Sampling rate : 48.0 KHz
Compression mode : Lossy
Stream size : 39.3 MiB (3%)
Title : Battlestar.Galactica.s04e01.rus.LostFilm.TV
Language : Russian
Default : Yes
Forced : No

Audio #2
ID : 3
Format : AC-3
Format/Info : Audio Coding 3
Mode extension : CM (complete main)
Format settings, Endianness : Big
Codec ID : A_AC3
Duration : 42mn 58s
Bit rate mode : Constant
Bit rate : 384 Kbps
Channel count : 6 channels
Channel positions : Front: L C R, Side: L R, LFE
Sampling rate : 48.0 KHz
Bit depth : 16 bits
Compression mode : Lossy
Stream size : 118 MiB (10%)
Language : English
Default : No
Forced : No

General
Unique ID : 193480452908215860642934861228909351543 (0x918EFAD39477386EBB3DE19968B55277)
Complete name : Z:\Battlestar Galactica (All)\Battlestar.Galactica.-.Razor.-.PGor.-.(HDTV-Rip.720p.x264.Russian.AC3-2.0.English.AC3-5.1).Sky.One.HD.mkv
Format : Matroska
Format version : Version 1
File size : 4.62 GiB
Duration : 1h 26mn
Overall bit rate : 7 639 Kbps
Movie name : Battlestar Galactica - Razor (2007) - Sky One HD @ - PGor -
Encoded date : UTC 2008-04-29 20:56:07
Writing application : mkvmerge v2.2.0 ('Turn It On Again') built on Mar 4 2008 12:58:26
Writing library : libebml v0.7.7 + libmatroska v0.8.1

Video
ID : 1
Format : AVC
Format/Info : Advanced Video Codec
Format profile : High@L5.1
Format settings, CABAC : Yes
Format settings, ReFrames : 8 frames
Codec ID : V_MPEG4/ISO/AVC
Duration : 1h 26mn
Bit rate : 6 719 Kbps
Nominal bit rate : 7 160 Kbps
Width : 1 280 pixels
Height : 720 pixels
Display aspect ratio : 16:9
Frame rate mode : Constant
Frame rate : 23.976 fps
Original frame rate : 25.000 fps
Color space : YUV
Chroma subsampling : 4:2:0
Bit depth : 8 bits
Scan type : Progressive
Bits/(Pixel*Frame) : 0.304
Stream size : 4.06 GiB (88%)
Title : Battlestar Galactica - Razor (2007) - Sky One HD @ ESiR
Writing library : x264 core 57 svn-709C
Encoding settings : cabac=1 / ref=5 / deblock=1:-3:-3 / analyse=0x3:0x133 / me=umh / fpel_cmp=sad / subme=6 / me-prepass=1 / brdo=1 / mixed_ref=1 / me_range=16 / chroma_me=1 / trellis=1 / 8x8dct=1 / cqm=2 / deadzone=21,11 / chroma_qp_offset=0 / threads=3 / nr=0 / decimate=0 / mbaff=0 / bframes=3 / b_pyramid=1 / b_adapt=1 / b_bias=0 / direct=1 / wpredb=1 / bime=1 / keyint=250 / keyint_min=25 / scenecut=40(pre) / rc=2pass / bitrate=7160 / ratetol=1.0 / rceq='blurCplx^(1-qComp)' / qcomp=0.60 / qpmin=10 / qpmax=51 / qpstep=4 / cplxblur=20.0 / qblur=0.5 / ip_ratio=1.40 / pb_ratio=1.30 / aq=1:0.7:15.0
Language : English
Default : Yes
Forced : No

Audio #1
ID : 2
Format : AC-3
Format/Info : Audio Coding 3
Mode extension : CM (complete main)
Format settings, Endianness : Big
Codec ID : A_AC3
Duration : 1h 26mn
Bit rate mode : Constant
Bit rate : 384 Kbps
Channel count : 2 channels
Channel positions : Front: L R
Sampling rate : 48.0 KHz
Bit depth : 16 bits
Compression mode : Lossy
Stream size : 238 MiB (5%)
Title : Dolby Digital AC3 2.0 @ 384 kbps (Kravec)
Language : Russian
Default : Yes
Forced : No

Audio #2
ID : 3
Format : AC-3
Format/Info : Audio Coding 3
Mode extension : CM (complete main)
Format settings, Endianness : Big
Codec ID : A_AC3
Duration : 1h 26mn
Bit rate mode : Constant
Bit rate : 384 Kbps
Channel count : 6 channels
Channel positions : Front: L C R, Side: L R, LFE
Sampling rate : 48.0 KHz
Bit depth : 16 bits
Compression mode : Lossy
Stream size : 238 MiB (5%)
Title : Dolby Digital AC3 5.1 @ 384 kbps
Language : English
Default : No
Forced : No

General
Unique ID : 255061479060993546915093292427400281410 (0xBFE30DD42521E25998D354BFA8197D42)
Complete name : Z:\Battlestar Galactica (All)\Battlestar.Galactica.The.Plan.BDrip.720p.mkv
Format : Matroska
Format version : Version 2
File size : 3.85 GiB
Duration : 1h 51mn
Overall bit rate mode : Variable
Overall bit rate : 4 945 Kbps
Encoded date : UTC 2009-10-25 22:46:54
Writing application : mkvmerge v2.9.8 ('C'est le bon') built on Aug 13 2009 12:49:06
Writing library : libebml v0.7.7 + libmatroska v0.8.1

Video
ID : 1
Format : AVC
Format/Info : Advanced Video Codec
Format profile : High@L3.1
Format settings, CABAC : Yes
Format settings, ReFrames : 5 frames
Codec ID : V_MPEG4/ISO/AVC
Duration : 1h 51mn
Bit rate : 4 081 Kbps
Width : 1 280 pixels
Height : 720 pixels
Display aspect ratio : 16:9
Frame rate mode : Constant
Frame rate : 23.976 fps
Color space : YUV
Chroma subsampling : 4:2:0
Bit depth : 8 bits
Scan type : Progressive
Bits/(Pixel*Frame) : 0.185
Stream size : 3.10 GiB (81%)
Writing library : x264 core 77 r1292 e381f6d
Encoding settings : cabac=1 / ref=5 / deblock=1:0:0 / analyse=0x3:0x113 / me=umh / subme=7 / psy=1 / psy_rd=1.0:0.0 / mixed_ref=1 / me_range=16 / chroma_me=1 / trellis=1 / 8x8dct=1 / cqm=0 / deadzone=21,11 / chroma_qp_offset=-2 / threads=6 / nr=0 / decimate=1 / mbaff=0 / constrained_intra=0 / bframes=3 / b_pyramid=1 / b_adapt=1 / b_bias=0 / direct=1 / wpredb=1 / keyint=250 / keyint_min=25 / scenecut=40 / rc=2pass / mbtree=0 / bitrate=4081 / ratetol=1.0 / qcomp=0.60 / qpmin=10 / qpmax=51 / qpstep=4 / cplxblur=20.0 / qblur=0.5 / ip_ratio=1.40 / pb_ratio=1.30 / aq=1:1.00
Language : English
Default : Yes
Forced : No

Audio #1
ID : 2
Format : MPEG Audio
Format version : Version 1
Format profile : Layer 3
Mode : Joint stereo
Mode extension : MS Stereo
Codec ID : A_MPEG/L3
Codec ID/Hint : MP3
Duration : 1h 51mn
Bit rate mode : Variable
Bit rate : 109 Kbps
Nominal bit rate : 128 Kbps
Channel count : 2 channels
Sampling rate : 48.0 KHz
Compression mode : Lossy
Stream size : 86.6 MiB (2%)
Writing library : LAME3.98r
Encoding settings : -m j -V 4 -q 2 -lowpass 17 --abr 128
Language : Russian
Default : Yes
Forced : No

Audio #2
ID : 3
Format : DTS
Format/Info : Digital Theater Systems
Mode : 16
Format settings, Endianness : Big
Codec ID : A_DTS
Duration : 1h 51mn
Bit rate mode : Constant
Bit rate : 755 Kbps
Channel count : 6 channels
Channel positions : Front: L C R, Side: L R, LFE
Sampling rate : 48.0 KHz
Bit depth : 24 bits
Compression mode : Lossy
Stream size : 601 MiB (15%)
Language : English
Default : No
Forced : No

Text
ID : 4
Format : UTF-8
Codec ID : S_TEXT/UTF8
Codec ID/Info : UTF-8 Plain Text
Language : English
Default : No
Forced : No

General
Complete name : Z:\Battlestar Galactica (All)\Battlestar Galactica - The Face of the Enemy Webisode 01-10.avi
Format : AVI
Format/Info : Audio Video Interleave
Format profile : OpenDML
Format settings : rec
File size : 414 MiB
Duration : 36mn 22s
Overall bit rate : 1 591 Kbps
Writing application : AVI-Mux GUI 1.17.8.3, Feb 16 201019:42:50

Video
ID : 0
Format : MPEG-4 Visual
Format profile : Advanced Simple@L5
Format settings, BVOP : Yes
Format settings, QPel : No
Format settings, GMC : No warppoints
Format settings, Matrix : Default (MPEG)
Codec ID : XVID
Codec ID/Hint : XviD
Duration : 36mn 22s
Bit rate : 1 326 Kbps
Width : 704 pixels
Height : 396 pixels
Display aspect ratio : 16:9
Frame rate : 23.976 fps
Color space : YUV
Chroma subsampling : 4:2:0
Bit depth : 8 bits
Scan type : Progressive
Compression mode : Lossy
Bits/(Pixel*Frame) : 0.198
Stream size : 345 MiB (83%)
Writing library : XviD 1.1.2 (UTC 2006-11-01)

Audio #1
ID : 1
Format : MPEG Audio
Format version : Version 1
Format profile : Layer 3
Codec ID : 55
Codec ID/Hint : MP3
Duration : 36mn 22s
Bit rate mode : Constant
Bit rate : 128 Kbps
Channel count : 2 channels
Sampling rate : 48.0 KHz
Compression mode : Lossy
Stream size : 33.3 MiB (8%)
Alignment : Aligned on interleaves
Interleave, duration : 24 ms (0.58 video frame)
Interleave, preload duration : 192 ms
Title : MP3 2.0ch (stereo) 128Kbps |rus|

Audio #2
ID : 2
Format : MPEG Audio
Format version : Version 1
Format profile : Layer 3
Codec ID : 55
Codec ID/Hint : MP3
Duration : 36mn 22s
Bit rate mode : Constant
Bit rate : 128 Kbps
Channel count : 2 channels
Sampling rate : 48.0 KHz
Compression mode : Lossy
Stream size : 33.3 MiB (8%)
Alignment : Aligned on interleaves
Interleave, duration : 551 ms (13.20 video frames)
Interleave, preload duration : 216 ms
Title : MP3 2.0ch (stereo) 128Kbps |eng|



Скачать Звёздный.крейсер.Галактика.Battlestar.Galactica.(Cезоны.1-4.Минисерии.(Лезвие.План)).(Майкл.Раймер.Рональд.Д.Мур.и.др.).[2003-2009.фантастика.HDTVRip].[720p].[MVO].torrent без регистрации
Золото ЗОЛОТАЯ РАЗДАЧА! СКАЧАННОЕ НЕ ЗАСЧИТЫВАЕТСЯ! Золото
Дата: Зарегистрирован   [ Тип: внутренний ] Как тут cкачать?
MAGNET ссылка
MAGNET ссылка


Скачать .torrent

318 KB

Статус: проверено DHT
Скачан: торрент - 156 раз, раздача полностью - 2 раз
Размер: 121,61 GB
Оценка:  5 (Голосов: 2)
Поблагодарили: 5
Поделиться ссылкой на эту раздачу с друзьями:
В контактеFacebookОдноклассникиTwitterLivejournalМой МирLiveinternet
 

 

Волжанин

[] 

Хронология (по сериям) выкладки -- ПИПЕЦ..
Понимаю, после посещения сайта Галактики и просто ОСОЗНАНИЯ "кто, где, когда", влом ковыряться в этой "чухне", выкладывая ЗДЕСЬ...
Не фанат сериала - автор выкладки. Факт.

bu bu .........
Ваше "медиаинфо" - с действительностью - не дружит..
 
Показать сообщения:    


Вы не можете начинать темы
Вы не можете отвечать на сообщения
Вы не можете редактировать свои сообщения
Вы не можете удалять свои сообщения
Вы не можете голосовать в опросах
Вы не можете прикреплять файлы к сообщениям
Вы можете скачивать файлы