Loading...
Error

Скачать Превращения / Transformations (Джей Кэймен) [1988, ужасы, фантастика, HDTVRip] [AVO (Дьяков)] торрент без регистрации

 
Статистика раздачи
Размер:  1,46 GB   |    Скачан:  102 раза
Сидов:  1  [  0 KB/s  ]  
 
Автор Сообщение

МихаНЕзатор

[] 

Информация о фильме
Название: Превращения
Оригинальное название: Transformations
Год выхода: 1988
Жанр: ужасы, фантастика
Режиссер: Джей Кэймен

В ролях: Рэкс Смит, Лиза Ланглуа, Патрик Макни, Кристофер Ним, Майкл Хеннесси, Сек Веррелл, Бенито Стефанелли, Дональд Ходсон, Памела Прати, Энн Маргарет Хьюз

О фильме: Далёкое будущее. Вольфганг Шаддак летел на своём личном звездолёте, когда во время сна, в его покоях появилась очень аппетитная девушка, которая склонила его к сексу. Причём во время любовных утех она стала трансформироваться в монстра. Очнулся он уже тогда, когда на корабле начались всякие неполадки. Аварийная система забросила космическое судно на ближайшую планету, служащую тюрьмой для преступников, где они, пока не откинутся, должны 10 лет добывать уголь



Страна: США
Студия: Dove Corporation Ltd., Empire Pictures, New World Pictures
Продолжительность: 01:16:47
Перевод: Авторский (одноголосый, закадровый)[Дьяков]

Файл
Кодек: XviD
Качество: HDTVRip
Видео: 720x400, 2517 kbps, 25 fps, 0.350 Bits/(Pixel*Frame)
Звук: AC3, 48 kHz, 2 ch, 192 kbps
Субтитры: Нет

Релиз от: и

Автор рипа: _Bathory_
General
Complete name : G:Transformations.1988.HDTVRip_by_Bathory.avi
Format : AVI
Format/Info : Audio Video Interleave
File size : 1.46 GiB
Duration : 1h 16mn
Overall bit rate : 2 719 Kbps
Writing application : VirtualDubMod 1.5.10.3 | www.virtualdub-fr.org || (build 2550/release)
Writing library : VirtualDubMod build 2550/release

Video
ID : 0
Format : MPEG-4 Visual
Format profile : Advanced Simple@L5
Format settings, BVOP : 1
Format settings, QPel : No
Format settings, GMC : No warppoints
Format settings, Matrix : Default (MPEG)
Codec ID : XVID
Codec ID/Hint : XviD
Duration : 1h 16mn
Bit rate : 2 517 Kbps
Width : 720 pixels
Height : 400 pixels
Display aspect ratio : 16:9
Frame rate : 25.000 fps
Color space : YUV
Chroma subsampling : 4:2:0
Bit depth : 8 bits
Scan type : Progressive
Compression mode : Lossy
Bits/(Pixel*Frame) : 0.350
Stream size : 1.35 GiB (93%)
Writing library : XviD 1.2.1 (UTC 2008-12-04)

Audio
ID : 1
Format : AC-3
Format/Info : Audio Coding 3
Mode extension : CM (complete main)
Format settings, Endianness : Big
Codec ID : 2000
Duration : 1h 16mn
Bit rate mode : Constant
Bit rate : 192 Kbps
Channel count : 2 channels
Channel positions : Front: L R
Sampling rate : 48.0 KHz
Bit depth : 16 bits
Compression mode : Lossy
Stream size : 105 MiB (7%)
Alignment : Split accross interleaves
Interleave, duration : 40 ms (1.00 video frame)
Interleave, preload duration : 500 ms



Скачать Превращения.Transformations.(Джей.Кэймен).[1988.ужасы.фантастика.HDTVRip].[AVO.(Дьяков)].torrent без регистрации
Золото ЗОЛОТАЯ РАЗДАЧА! СКАЧАННОЕ НЕ ЗАСЧИТЫВАЕТСЯ! Золото
Дата: Зарегистрирован   [ Тип: внутренний ] Как тут cкачать?
MAGNET ссылка
MAGNET ссылка


Скачать .torrent

15 KB

Статус: проверено DHT
Скачан: торрент - 102 раз, раздача полностью - 13 раз
Размер: 1,46 GB
Оценка:  - (Голосов: 0)
Поблагодарили: 2
Поделиться ссылкой на эту раздачу с друзьями:
В контактеFacebookОдноклассникиTwitterLivejournalМой МирLiveinternet
 

 
Показать сообщения:    


Вы не можете начинать темы
Вы не можете отвечать на сообщения
Вы не можете редактировать свои сообщения
Вы не можете удалять свои сообщения
Вы не можете голосовать в опросах
Вы не можете прикреплять файлы к сообщениям
Вы можете скачивать файлы