Loading...
Error

Скачать Невозмутимый / Stone Cold (Крэйг Р. Бэксли) [1991, боевик, драма, криминал, HDTVRip] [DVO (НТВ+)] торрент без регистрации

 
Статистика раздачи
Размер:  1,46 GB   |    Скачан:  139 раз
Сидов:  1  [  0 KB/s  ]  
 
Автор Сообщение

МихаНЕзатор

[] 

Информация о фильме
Название: Невозмутимый
Оригинальное название: Stone Cold
Год выхода: 1991
Жанр: боевик, драма, криминал
Режиссер: Крэйг Р. Бэксли

В ролях: Брайан Босворт, Лэнс Хенриксен, Иллэна Дайамант, Уильям Форсайт, Арабелла Хольцбог, Сэм МакМюррей, Ричард Гант, Дэвид Тресс, Ивэн Джеймс, Тони Пирс, Билли Милион, Роберт Уинли, Грегори Скотт Камминс, Деметре Филлипс, Мэджик Шварц, Бренда Джеймс, Пол М. Лэйн, Джин Хартлайн, Джон Хэтли, Трэйси Хатчинсон, Дженнифер Синнотт, Джон Р. Грэнтхем, Томас Ф. Ибарра, Майкл Рен, Билл Грэттон, Майкл Джеймс, Дэвид Глен Айли, Чарльз Странски, Рене ОКоннор, Мэгги Иган, Бенжамин Розенберг, Фрэнк Феррара, Трой Браун, Роберт Прентисс, Кевин Пейдж, Мэтт Д. Джонсон, Мэтт Джонстон, Ник Дмитрий, Дэвид Эфрон, Том Маджи, Джон Терренс, Лора Альберт, Карен Абернати

О фильме: Джо Хафф полицейский, который внедряется в банду рокеров, терроризирующую городок в штате Миссисипи, подминая под себя не только рядовых его жителей и подпольных бизнесменов, но и местные органы власти, включая представителей правосудия. Внешность и манеры поведения Джо позволяют ему выдать себя среди рокеров за своего и под именем Джо Стоуна начать разработку операции по захвату всей моторизованной и до зубов вооруженной банды, которой руководит безжалостный Чейнз.



Страна: США
Студия: Stone Group Pictures / Vision International
Продолжительность: 01:28:13
Перевод: Профессиональный(двухголосый, закадровый)(НТВ+)

Файл
Кодек: Xvid
Качество: HDTVRip с |HDTV 1080i|
Видео: 720x384, 25,000 fps, 2161 kbps
Звук: AC3, 2 ch, 192 Kbps, 48,0 khz

Релиз от: Leon-masl
Общее
Полное имя : Stone.Cold.1991.HDTVRip.avi
Формат : AVI
Формат/Информация : Audio Video Interleave
Размер файла : 1,46 Гбайт
Продолжительность : 1 ч. 28 м.
Общий поток : 2363 Кбит/сек
Программа кодирования : VirtualDubMod 1.5.10.3 | www.virtualdub-fr.org || (build 2550/release)
Библиотека кодирования : VirtualDubMod build 2550/release

Видео
Идентификатор : 0
Формат : MPEG-4 Visual
Профиль формата : Advanced Simple@L5
Параметр BVOP формата : 1
Параметр QPel формата : Нет
Параметр GMC формата : Без точки перехода
Параметр матрицы формата : Выборочная
Идентификатор кодека : XVID
Идентификатор кодека/Подсказка : XviD
Продолжительность : 1 ч. 28 м.
Битрейт : 2161 Кбит/сек
Ширина : 720 пикс.
Высота : 384 пикс.
Соотношение сторон : 1,875
Частота кадров : 25,000 кадр/сек
Цветовое пространство : YUV
Подвыборка цветности : 4:2:0
Битовая глубина : 8 бит
Тип развёртки : Прогрессивная
Метод сжатия : С потерями
Бит/(Пиксели*Кадры) : 0.313
Размер потока : 1,33 Гбайт (91%)
Библиотека кодирования : XviD 73

Аудио
Идентификатор : 1
Формат : AC-3
Формат/Информация : Audio Coding 3
Расширение режима : CM (complete main)
Идентификатор кодека : 2000
Продолжительность : 1 ч. 28 м.
Вид битрейта : Постоянный
Битрейт : 192 Кбит/сек
Канал(ы) : 2 канала(ов)
Расположение каналов : Front: L R
Частота : 48,0 КГц
Битовая глубина : 16 бит
Метод сжатия : С потерями
Размер потока : 121 Мбайт (8%)
Выравнивание : Разделение по промежуткам
Продолжительность промежутка : 40 мс. (1,00 видеокадр)
Время предзагрузки промежутка : 500 ms



Скачать Невозмутимый.Stone.Cold.(Крэйг.Р.Бэксли).[1991.боевик.драма.криминал.HDTVRip].[DVO.(НТВ+)].torrent без регистрации
Золото ЗОЛОТАЯ РАЗДАЧА! СКАЧАННОЕ НЕ ЗАСЧИТЫВАЕТСЯ! Золото
Дата: Зарегистрирован   [ Тип: внутренний ] Как тут cкачать?
MAGNET ссылка
MAGNET ссылка


Скачать .torrent

15 KB

Статус: проверено DHT
Скачан: торрент - 139 раз, раздача полностью - 30 раз
Размер: 1,46 GB
Оценка:  - (Голосов: 0)
Поблагодарили: 0
Поделиться ссылкой на эту раздачу с друзьями:
В контактеFacebookОдноклассникиTwitterLivejournalМой МирLiveinternet
 

 
Показать сообщения:    


Вы не можете начинать темы
Вы не можете отвечать на сообщения
Вы не можете редактировать свои сообщения
Вы не можете удалять свои сообщения
Вы не можете голосовать в опросах
Вы не можете прикреплять файлы к сообщениям
Вы можете скачивать файлы