Loading...
Error

Скачать Лиллехаммер / Lilyhammer (Полный 2-ой сезон) (Симен Алсвик, Лиза Мари Гамлем) [2013 г., комедия, драма, криминальный, HDTVRip] [720p] [AVO] (Ю. Сербин) торрент без регистрации

 
Статистика раздачи
Размер:  11,96 GB   |    Скачан:  445 раз
Сидов:  1  [  0 KB/s  ]  
 
Автор Сообщение

leon030982

[] 

Лиллехаммер - Второй сезон
Lilyhammer


Год выхода в эфир: 2013
Страна: Норвегия
Жанр: комедия, драма, криминальный
Продолжительность: ~ 00:45:00
Перевод: Авторский (одноголосый, закадровый) |Ю. Сербин|
Субтитры: есть (Norwegian)
Режиссер: Симен Алсвик, Лиза Мари Гамлем
В ролях: Стив Ван Зандт, Мариан Саастад Оттесен, Тронд Фауса Аурвааг, Энн Кригсволл, Стейнар Саген, Микаэль Акснес-Персон, Свен Нордин, Фридтьов Сохейм, Кюрре Хеллум, Томми Карлсен
Описание: Тальяно сдал своего босса федералам, и теперь, в рамках программы по защите свидетелей, он переезжает в Лиллехаммер, небольшой норвежский городок, когда-то приютивший зимние олимпийские игры. Сам Фрэнк называет его Лилихэммером, отсюда и название сериала. Фрэнк мечтает о рае с «чистым воздухом, белым снегом и клевыми телками», вдали от соблазнов Нью-Йорка и от карателей мафии. Реальность, конечно же, оказывается не такой, как мечты.


Качество: HDTVRip 720p
Формат: MKV
Видео кодек: h.264
Аудио кодек: AC3
Видео: 1280x720 at 25.000 fps, x264, ~3700 kbps avg
Аудио #1: 48 kHz, AC3 Dolby Digital, 3/2 (L,C,R,l,r) + LFE ch, ~448 kbps avg |Ю. Сербин|
Аудио #2: 48 kHz, AC3 Dolby Digital, 2 ch, ~448 kbps avg |Original|

ВНИМАНИЕ! В сериале присутствует большое количество не нормативной лексики.


General
Complete name : E:\INTERNET\Lilyhammer.S02.720p.HDTVRip.Rus.Nor.HDCLUB\Lilyhammer.S02E01.720p.HDTVRip.Rus.Nor.HDCLUB.mkv
Format : Matroska
File size : 1.49 GiB
Duration : 45mn 10s
Overall bit rate : 4 726 Kbps
Movie name : Lilyhammer 2
Encoded date : UTC 2013-10-28 12:29:48
Writing application : mkvmerge v6.3.0 ('You can't stop me!') built on Jun 28 2013 20:09:41
Writing library : libebml v1.3.0 + libmatroska v1.4.0

Video
ID : 1
Format : AVC
Format/Info : Advanced Video Codec
Format profile : High@L4.1
Format settings, CABAC : Yes
Format settings, ReFrames : 9 frames
Muxing mode : Container profile=Unknown@4.1
Codec ID : V_MPEG4/ISO/AVC
Duration : 45mn 10s
Bit rate : 3 736 Kbps
Width : 1 280 pixels
Height : 720 pixels
Display aspect ratio : 16:9
Frame rate : 25.000 fps
Color space : YUV
Chroma subsampling : 4:2:0
Bit depth : 8 bits
Scan type : Progressive
Bits/(Pixel*Frame) : 0.162
Stream size : 1.18 GiB (79%)
Title : Lilyhammer 2
Writing library : x264 core 138 r2358 9e941d1
Encoding settings : cabac=1 / ref=9 / deblock=1:-2:-2 / analyse=0x3:0x133 / me=umh / subme=10 / psy=1 / psy_rd=1.00:0.00 / mixed_ref=1 / me_range=24 / chroma_me=1 / trellis=2 / 8x8dct=1 / cqm=0 / deadzone=21,11 / fast_pskip=1 / chroma_qp_offset=-2 / threads=12 / lookahead_threads=2 / sliced_threads=0 / nr=0 / decimate=1 / interlaced=0 / bluray_compat=0 / constrained_intra=0 / bframes=8 / b_pyramid=2 / b_adapt=2 / b_bias=0 / direct=3 / weightb=1 / open_gop=0 / weightp=2 / keyint=250 / keyint_min=25 / scenecut=40 / intra_refresh=0 / rc_lookahead=60 / rc=crf / mbtree=1 / crf=17.0 / qcomp=0.60 / qpmin=0 / qpmax=69 / qpstep=4 / ip_ratio=1.40 / aq=1:1.00

Audio #1
ID : 2
Format : AC-3
Format/Info : Audio Coding 3
Mode extension : CM (complete main)
Codec ID : A_AC3
Duration : 45mn 10s
Bit rate mode : Constant
Bit rate : 448 Kbps
Channel(s) : 6 channels
Channel positions : Front: L C R, Side: L R, LFE
Sampling rate : 48.0 KHz
Bit depth : 16 bits
Stream size : 145 MiB (9%)
Title : Ю. Сербин
Language : Russian

Audio #2
ID : 3
Format : AC-3
Format/Info : Audio Coding 3
Mode extension : CM (complete main)
Codec ID : A_AC3
Duration : 45mn 10s
Bit rate mode : Constant
Bit rate : 448 Kbps
Channel(s) : 2 channels
Channel positions : Front: L R
Sampling rate : 48.0 KHz
Bit depth : 16 bits
Video delay : 32ms
Stream size : 145 MiB (9%)
Language : Norwegian

Text
ID : 4
Format : UTF-8
Codec ID : S_TEXT/UTF8
Codec ID/Info : UTF-8 Plain Text
Language : Norwegian




- Огромное СПАСИБО за спонсирование сериала:
Спонсоры: HPotter, ClubMember, Vikachka, dementeb, SpartsDR, r3ap3r, rubak, demonx.
Добавлена финальная 8-я серия!!!





Скачать Лиллехаммер.Lilyhammer.(Полный.2-ой.сезон).(Симен.Алсвик.Лиза.Мари.Гамлем).[2013.г.комедия.драма.криминальный.HDTVRip].[720p].[AVO].(Ю.Сербин).torrent без регистрации
Золото ЗОЛОТАЯ РАЗДАЧА! СКАЧАННОЕ НЕ ЗАСЧИТЫВАЕТСЯ! Золото
Дата: Зарегистрирован   [ Тип: внутренний ] Как тут cкачать?
MAGNET ссылка
MAGNET ссылка


Скачать .torrent

121 KB

Статус: проверено DHT
Скачан: торрент - 445 раз, раздача полностью - 259 раз
Размер: 11,96 GB
Оценка:  5 (Голосов: 2)
Поблагодарили: 2
Поделиться ссылкой на эту раздачу с друзьями:
В контактеFacebookОдноклассникиTwitterLivejournalМой МирLiveinternet
 

 

leon030982

[] 

добавлена 2-я серия!
 

leon030982

[] 

Добавлена 3-4-я серии az
 

Ded_dinamo

[] 

А когда раздача то начнется? )
 

leon030982

[] 

Торент перезалит!Пожалуйста перекачайте az
 

leon030982

[] 

Цитата:

Добавлена 5-я серия az
 

leon030982

[] 

Цитата:

Добавлена 6-я серия az
 

leon030982

[] 

Цитата:

7-я серия ay
 

leon030982

[] 

Код:

Добавлена финальная 8-я серия
 
Показать сообщения:    


Вы не можете начинать темы
Вы не можете отвечать на сообщения
Вы не можете редактировать свои сообщения
Вы не можете удалять свои сообщения
Вы не можете голосовать в опросах
Вы не можете прикреплять файлы к сообщениям
Вы можете скачивать файлы