Loading...
Error

Скачать Каин. Исключение из правил / Caџn (сезон 01) (Бертран Артурус) [2012, криминал, SATRip] [MVO (Игмар)] торрент без регистрации

 
Статистика раздачи
Размер:  5,09 GB   |    Скачан:  124 раза
Сидов:  1  [  0 KB/s  ]  
 
Автор Сообщение

МихаНЕзатор

[] 

Информация о фильме
Название: Каин. Исключение из правил
Оригинальное название: Caџn
Год выхода: 2012
Жанр: криминал
Режиссер: Бертран Артурус

В ролях: Брюно Дебранд, Жюли Деларм, Фредерик Пэльжэ, Смади Вольфман, Анн Суарес, Ив Верховен, Александр Тибо, Марушка Детмерс

О фильме: Полицейский сериал с необычным главным героем капитаном угрозыска, прикованным к инвалидной коляске после аварии на мотоцикле, на котором он значительно превысил скорость, находясь под воздействием наркотиков.

С черным юмором и сарказмом относясь к своей инвалидности, Фред Каин цинично расследует сложные преступления и убийства в мире «двуногих»



Страна: Франция
Продолжительность: ~55 минут серия
Перевод: Профессиональный (многоголосый закадровый) [Компания «Игмар» для «Много ТВ»]

Файл
Кодек: XviD / AC3
Качество: SATRip
Видео: XviD, 720x400 (16:9), 25 fps, ~1500 kbps
Звук: AC-3, 2 ch, 192 kbps
Sample
General
Complete name : /media/torrent/Kain.Isklyuchenie.iz.pravil.2012.XviD.dj_zum/01.avi
Format : AVI
Format/Info : Audio Video Interleave
File size : 651 MiB
Duration : 54mn 9s
Overall bit rate : 1 680 Kbps
Writing application : VirtualDubMod 1.5.10.3 | www.virtualdub-fr.org || (build 2550/release)
Writing library : VirtualDubMod build 2550/release

Video
ID : 0
Format : MPEG-4 Visual
Format profile : Advanced Simple@L5
Format settings, BVOP : 2
Format settings, QPel : No
Format settings, GMC : No warppoints
Format settings, Matrix : Custom
Codec ID : XVID
Codec ID/Hint : XviD
Duration : 54mn 9s
Bit rate : 1 478 Kbps
Width : 720 pixels
Height : 400 pixels
Display aspect ratio : 16:9
Frame rate : 25.000 fps
Color space : YUV
Chroma subsampling : 4:2:0
Bit depth : 8 bits
Scan type : Progressive
Compression mode : Lossy
Bits/(Pixel*Frame) : 0.205
Stream size : 573 MiB (88%)
Writing library : XviD 1.2.1 (UTC 2008-12-04)

Audio
ID : 1
Format : AC-3
Format/Info : Audio Coding 3
Mode extension : CM (complete main)
Format settings, Endianness : Big
Codec ID : 2000
Duration : 54mn 9s
Bit rate mode : Constant
Bit rate : 192 Kbps
Channel(s) : 2 channels
Channel positions : Front: L R
Sampling rate : 48.0 KHz
Bit depth : 16 bits
Compression mode : Lossy
Stream size : 74.4 MiB (11%)
Alignment : Split accross interleaves
Interleave, duration : 40 ms (1.00 video frame)
Interleave, preload duration : 500 ms



Скачать Каин.Исключение.из.правил.Caџn.(сезон.01).(Бертран.Артурус).[2012.криминал.SATRip].[MVO.(Игмар)].torrent без регистрации
Золото ЗОЛОТАЯ РАЗДАЧА! СКАЧАННОЕ НЕ ЗАСЧИТЫВАЕТСЯ! Золото
Дата: Зарегистрирован   [ Тип: внутренний ] Как тут cкачать?
MAGNET ссылка
MAGNET ссылка


Скачать .torrent

27 KB

Статус: проверено DHT
Скачан: торрент - 124 раз, раздача полностью - 16 раз
Размер: 5,09 GB
Оценка:  5 (Голосов: 1)
Поблагодарили: 3
Поделиться ссылкой на эту раздачу с друзьями:
В контактеFacebookОдноклассникиTwitterLivejournalМой МирLiveinternet
 

 
Показать сообщения:    


Вы не можете начинать темы
Вы не можете отвечать на сообщения
Вы не можете редактировать свои сообщения
Вы не можете удалять свои сообщения
Вы не можете голосовать в опросах
Вы не можете прикреплять файлы к сообщениям
Вы можете скачивать файлы