Loading...
Error

Скачать Черное Рождество / Black Christmas (Глен Морган) [2006, ужасы, триллер, HDDVDRip-AVC] [AVO] торрент без регистрации

 
Статистика раздачи
Размер:  1,45 GB   |    Скачан:  117 раз
Сидов:  1  [  0 KB/s  ]  
 
Автор Сообщение

Marsianka

[] 

Черное Рождество / Black Christmas (2006) HDDVDRip-AVC

Информация о фильме
Название: Черное Рождество
Оригинальное название: Black Christmas
Год выхода: 2006
Жанр: ужасы, триллер
Режиссер: Глен Морган

В ролях: Кэти Кэссиди, Мишель Трахтенберг, Мэри Элизабет Уинстэд, Лейси Чаберт, Кристен Клоук, Андреа Мартин, Кристал Лоу, Оливер Хадсон, Карин Коновал, Дин Фрисс

О фильме: Много лет назад, будучи еще ребенком, своими собственными глазами Билли видел, как его мать жестоко убила отца. А затем заперла его, своего единственного свидетеля, на чердаке. Как собаку. На долгие годы. Но однажды Билли удалось бежать

Канун Рождества. Школа сестер милосердия оглашается тревожными телефонными звонками. Кто-то упорно терроризирует девушек, произнося зловещим голосом страшные угрозы. И вскоре таинственным образом одна за другой погибают воспитанницы школы


Страна: США, Канада
Продолжительность: 01:32:12
Перевод: Авторский одноголосый (А. Дольский) | ненормативная лексика

Файл
Кодек: x.264
Качество: HDDVDRip-AVC (источник: hdclub / Diablo / HDDVD-Remux / 1080p)
Видео: 1024x432 (2,40:1), 23.976 fps, 1806 kbps, 0.170 bit/pixel
Звук: 48 kHz, AC3 Dolby Digital, 6 ch, ~448.00 kbps

&
Общее
Уникальный идентификатор : 221250279349297959219527278521851425869 (0xA67340FA5DC0C67585C49E8A9D91B44D)
Полное имя : D:Black Christmas.2006.HDDVDRip-AVC.mkv
Формат : Matroska
Версия формата : Version 2
Размер файла : 1,45 Гбайт
Продолжительность : 1 ч. 32 м.
Общий поток : 2247 Кбит/сек
Название фильма : Черное Рождество / Black Christmas (2006) HDDVDRip-AVC rip by Rulya74
Дата кодирования : UTC 2013-10-29 04:50:49
Программа кодирования : mkvmerge v5.0.1 ('Es ist Sommer') built on Oct 9 2011 11:55:43
Библиотека кодирования : libebml v1.2.2 + libmatroska v1.3.0

Видео
Идентификатор : 1
Формат : AVC
Формат/Информация : Advanced Video Codec
Профиль формата : High@L4.1
Параметр CABAC формата : Да
Параметр ReFrames формата : 12 кадров
Идентификатор кодека : V_MPEG4/ISO/AVC
Продолжительность : 1 ч. 32 м.
Битрейт : 1806 Кбит/сек
Ширина : 1024 пикселя
Высота : 432 пикселя
Соотношение сторон : 2,40:1
Режим частоты кадров : Постоянный
Частота кадров : 23,976 кадра/сек
Цветовое пространство : YUV
Субдискретизация насыщенности : 4:2:0
Битовая глубина : 8 бит
Тип развёртки : Прогрессивная
Бит/(Пиксели*Кадры) : 0.170
Размер потока : 1,13 Гбайт (78%)
Библиотека кодирования : x264 core 133 r2334 a3ac64b
Настройки программы : cabac=1 / ref=12 / deblock=1:-3:-3 / analyse=0x3:0x113 / me=umh / subme=10 / psy=1 / psy_rd=1.00:0.00 / mixed_ref=1 / me_range=48 / chroma_me=1 / trellis=2 / 8x8dct=1 / cqm=0 / deadzone=21,11 / fast_pskip=0 / chroma_qp_offset=-2 / threads=16 / lookahead_threads=1 / sliced_threads=0 / nr=0 / decimate=1 / interlaced=0 / bluray_compat=0 / constrained_intra=0 / bframes=8 / b_pyramid=2 / b_adapt=1 / b_bias=0 / direct=3 / weightb=1 / open_gop=0 / weightp=2 / keyint=240 / keyint_min=23 / scenecut=40 / intra_refresh=0 / rc_lookahead=40 / rc=2pass / mbtree=1 / bitrate=1806 / ratetol=1.0 / qcomp=0.60 / qpmin=10 / qpmax=69 / qpstep=4 / cplxblur=20.0 / qblur=0.5 / vbv_maxrate=62500 / vbv_bufsize=78125 / nal_hrd=none / ip_ratio=1.40 / aq=2:1.00
Default : Да
Forced : Нет

Аудио
Идентификатор : 2
Формат : AC-3
Формат/Информация : Audio Coding 3
Расширение режима : CM (complete main)
Параметр Endianness формата : Big
Идентификатор кодека : A_AC3
Продолжительность : 1 ч. 32 м.
Вид битрейта : Постоянный
Битрейт : 448 Кбит/сек
Каналы : 6 каналов
Расположение каналов : Front: L C R, Side: L R, LFE
Частота : 48,0 КГц
Битовая глубина : 16 бит
Метод сжатия : С потерями
Размер потока : 295 Мбайт (20%)
Заголовок : Авторский одноголосый (А. Дольский)
Язык : Russian
Default : Да
Forced : Нет



Скачать Черное.Рождество.Black.Christmas.(Глен.Морган).[2006.ужасы.триллер.HDDVDRip-AVC].[AVO].torrent без регистрации
Золото ЗОЛОТАЯ РАЗДАЧА! СКАЧАННОЕ НЕ ЗАСЧИТЫВАЕТСЯ! Золото
Дата: Зарегистрирован   [ Тип: внутренний ] Как тут cкачать?
MAGNET ссылка
MAGNET ссылка


Скачать .torrent

15 KB

Статус: проверено DHT
Скачан: торрент - 117 раз, раздача полностью - 9 раз
Размер: 1,45 GB
Оценка:  - (Голосов: 0)
Поблагодарили: 0
Поделиться ссылкой на эту раздачу с друзьями:
В контактеFacebookОдноклассникиTwitterLivejournalМой МирLiveinternet
 

 
Показать сообщения:    


Вы не можете начинать темы
Вы не можете отвечать на сообщения
Вы не можете редактировать свои сообщения
Вы не можете удалять свои сообщения
Вы не можете голосовать в опросах
Вы не можете прикреплять файлы к сообщениям
Вы можете скачивать файлы