Loading...
Error

Скачать Невидимое / Невидаль / The Unseen (Питер Фолег, Дэнни Стейнманн) [1980, ужасы, триллер, BDRip] [AVC] [AVO]+[Sub] торрент без регистрации

 
Статистика раздачи
Размер:  2,56 GB   |    Скачан:  119 раз
Сидов:  1  [  0 KB/s  ]  
 
Автор Сообщение

Marsianka

[] 

Информация о фильме
Название: Невидимое / Невидаль
Оригинальное название: The Unseen
Год выхода: 1980
Жанр: ужасы, триллер
Режиссер: Питер Фолег, Дэнни Стейнманн
В ролях: Стефен Ферст, Барбара Бах, Сидни Лэссик, Лилия Гольдони, Карен Ломм, Дуглас Барр, Луис Янг, Майда Сэверн

О фильме:
Три молоденькие журналистки Дженнифер, Карен и Викки приезжают в небольшой провинциальный калифорнийский городок Солванг, чтобы сделать репортаж о ежегодном фестивале-ярмарке. Но все местные гостиницы оказываются под завязку забиты понаехавшими гостями. Девушкам не остается ничего другого, как принять приглашение дружелюбного, но загадочного владельца музея по имени Эрнест Келлер остановиться в его особняке, где он живет со своей супругой Вирджинией. Но девушки даже представить себе не могли, что в подвале дома вот уже двадцать лет обитает монстр, который очень хочет познакомиться с ними поближе.
Сатурн, 1982 год
Номинации (1):
Лучший малобюджетный фильм
В раздаче с 00:08:30 по 00:09:05 отсутствует перевод, вместо перевода сделаны русские субтитры
Огромная благодарность Media-Art-Club за созданный постер к раздаче!
Рейтинг R - Детям до 17 лет обязательно присутствие родителей

Рейтинг R получают фильмы, в содержании которых обязательно содержится материал, предназначенный только для взрослой аудитории. Родителям рекомендуется хорошо подумать, прежде чем посмотреть такой фильм вместе со своими детьми.

Фильм, получивший рейтинг R, скорее всего содержит сексуальные сцены, эпизоды с употреблением наркотиков, нецензурную брань, фрагменты с насилием и т.д.
Полное имя : G:Готово!!!Nevidimoe.1980.x264.BDRip.AVC-MediaClub.mkv
Формат : Matroska
Версия формата : Version 2
Размер файла : 2,56 Гбайт
Продолжительность : 1 ч. 34 м.
Общий поток : 3886 Кбит/сек
Название фильма : Nevidimoe (1980) BDRip AVC=MediaClub=-[Викс]-
Дата кодирования : UTC 2013-10-26 08:34:51
Программа кодирования : mkvmerge v5.8.0 ('No Sleep / Pillow') built on Sep 2 2012 15:37:04
Библиотека кодирования : libebml v1.2.3 + libmatroska v1.3.0

Видео
Идентификатор : 1
Формат : AVC
Формат/Информация : Advanced Video Codec
Профиль формата : High@L4.1
Параметр CABAC формата : Да
Параметр ReFrames формата : 10 кадров
Идентификатор кодека : V_MPEG4/ISO/AVC
Продолжительность : 1 ч. 34 м.
Битрейт : 3500 Кбит/сек
Ширина : 1024 пикселя
Высота : 576 пикселей
Соотношение сторон : 16:9
Режим частоты кадров : Постоянный
Частота кадров : 23,976 кадра/сек
Цветовое пространство : YUV
Субдискретизация насыщенности : 4:2:0
Битовая глубина : 8 бит
Тип развёртки : Прогрессивная
Бит/(Пиксели*Кадры) : 0.247
Размер потока : 2,25 Гбайт (88%)
Библиотека кодирования : x264 core 130 r2273 b3065e6
Настройки программы : cabac=1 / ref=10 / deblock=1:-2:-2 / analyse=0x3:0x113 / me=umh / subme=11 / psy=1 / psy_rd=1.00:0.20 / mixed_ref=1 / me_range=48 / chroma_me=1 / trellis=2 / 8x8dct=1 / cqm=0 / deadzone=21,11 / fast_pskip=0 / chroma_qp_offset=-3 / threads=6 / lookahead_threads=1 / sliced_threads=0 / nr=0 / decimate=0 / interlaced=0 / bluray_compat=0 / constrained_intra=0 / bframes=8 / b_pyramid=2 / b_adapt=2 / b_bias=0 / direct=3 / weightb=1 / open_gop=0 / weightp=2 / keyint=250 / keyint_min=23 / scenecut=40 / intra_refresh=0 / rc_lookahead=40 / rc=2pass / mbtree=1 / bitrate=3500 / ratetol=1.0 / qcomp=0.60 / qpmin=0 / qpmax=69 / qpstep=4 / cplxblur=20.0 / qblur=0.5 / ip_ratio=1.40 / aq=1:1.00
Язык : English
Default : Да
Forced : Нет

Аудио #1
Идентификатор : 2
Формат : AC-3
Формат/Информация : Audio Coding 3
Расширение режима : CM (complete main)
Параметр Endianness формата : Big
Идентификатор кодека : A_AC3
Продолжительность : 1 ч. 34 м.
Вид битрейта : Постоянный
Битрейт : 192 Кбит/сек
Каналы : 2 канала
Расположение каналов : Front: L R
Частота : 48,0 КГц
Битовая глубина : 16 бит
Метод сжатия : С потерями
Размер потока : 129 Мбайт (5%)
Заголовок : AP (Vizgunov)
Язык : Russian
Default : Да
Forced : Нет

Аудио #2
Идентификатор : 3
Формат : AC-3
Формат/Информация : Audio Coding 3
Расширение режима : CM (complete main)
Параметр Endianness формата : Big
Идентификатор кодека : A_AC3
Продолжительность : 1 ч. 34 м.
Вид битрейта : Постоянный
Битрейт : 192 Кбит/сек
Каналы : 2 канала
Расположение каналов : Front: L R
Частота : 48,0 КГц
Битовая глубина : 16 бит
Метод сжатия : С потерями
Размер потока : 129 Мбайт (5%)
Язык : English
Default : Нет
Forced : Нет

Текст
Идентификатор : 4
Формат : UTF-8
Идентификатор кодека : S_TEXT/UTF8
Идентификатор кодека/Информация : UTF-8 Plain Text
Язык : Russian
Default : Да
Forced : Да

Меню
00:00:00.000 : :Chapter 01
00:09:53.801 : :Chapter 02
00:23:06.218 : :Chapter 03
00:32:07.967 : :Chapter 04
00:40:58.456 : :Chapter 05
00:55:18.106 : :Chapter 06
01:15:21.058 : :Chapter 07
01:30:38.766 : :Chapter 08
01:34:11.228 : :Chapter 09
x264 [info]: frame I:861 Avg QP:13.56 size:117831
x264 [info]: frame P:30811 Avg QP:16.73 size: 42961
x264 [info]: frame B:103823 Avg QP:18.87 size: 10089

Страна: США
Продолжительность: 01:34:11
Перевод: Авторский одноголосый (С.Визгунов)

Файл
Кодек: x264
Качество: BDRip (AVC)
Видео: MPEG-4 AVC, 3500 Кбит/с, 1024x576, 23.976 кадр/с
Звук:
Аудио #1: Русский (AC3, 2 ch, 192 Кбит/с) / Авторский одноголосый (С.Визгунов)
Аудио #2: Английский (AC3, 2 ch, 192 Кбит/с)
Субтитры: Русские (на место без перевода)

Семпл Релиз от: Рип, работа с аудио - Викс



Скачать Невидимое.Невидаль.The.Unseen.(Питер.Фолег.Дэнни.Стейнманн).[1980.ужасы.триллер.BDRip].[AVC].[AVO]+[Sub].torrent без регистрации
Золото ЗОЛОТАЯ РАЗДАЧА! СКАЧАННОЕ НЕ ЗАСЧИТЫВАЕТСЯ! Золото
Дата: Зарегистрирован   [ Тип: внутренний ] Как тут cкачать?
MAGNET ссылка
MAGNET ссылка


Скачать .torrent

14 KB

Статус: проверено DHT
Скачан: торрент - 119 раз, раздача полностью - 152 раз
Размер: 2,56 GB
Оценка:  - (Голосов: 0)
Поблагодарили: 1
Поделиться ссылкой на эту раздачу с друзьями:
В контактеFacebookОдноклассникиTwitterLivejournalМой МирLiveinternet
 

 
Показать сообщения:    


Вы не можете начинать темы
Вы не можете отвечать на сообщения
Вы не можете редактировать свои сообщения
Вы не можете удалять свои сообщения
Вы не можете голосовать в опросах
Вы не можете прикреплять файлы к сообщениям
Вы можете скачивать файлы