Loading...
Error

Скачать Любовный треугольник / Two Girls and a Guy (Джеймс Тобэк) [1997, драма, комедия, BDRip] [DVO]+[AVO]+[Sub] торрент без регистрации

 
Статистика раздачи
Размер:  1,8 GB   |    Скачан:  104 раза
Сидов:  1  [  0 KB/s  ]  
 
Автор Сообщение

Marsianka

[] 

Название: Любовный треугольник
Оригинальное название: Two Girls and a Guy
Год выпуска: 1997
Жанр: драма, комедия
Выпущено: США, Bigel/Mailer Films, Edward R. Pressman Film Corporation, Fox Searchlight Pictures, Muse Productions
Режиссер: Джеймс Тобэк
В ролях: Роберт Дауни мл., Наташа Грегсон Вагнер, Хезер Грэм, Энджел Дэвид, Фредерик Ван дер Вал

О фильме: У некоторых парней и с одной девушкой бывают проблемы. У Блейка получилось сразу с двумя. Такие разные - шикарная и искушенная Карла, сексуальная и откровенная Лу - удачно дополняли друг друга, не подозревая об этом. Мужчины иногда так делают. И Блейк попробовал



Качество: BDRip
Размер: 1.8 ГБ
Продолжительность: 01:25:39

Видео: XviD, 1902 Kбит/с, 720x384
Аудио 1: русский, 48 kHz, AC3, 2 ch, 192 kbps avg, [Профессиональный двухголосый, CTC]
Аудио 2: русский, 48 kHz, AC3, 6 ch, 448 kbps avg, [Авторский, Антон Алексеев]

Внешние файлы
Аудио: английский, 48 kHz, AC3, 6 ch, 448 kbps avg, [Оригинал]
Субтитры: русские (Анастасия Кисиленко, с ненормативной лексикой)
Субтитры: английские
seva1988

...«Две девушки и парень» начинаются как адюльтерная комедия. Но далее всё иначе. И мало-помалу перед нами (перед теми, кто ещё не переключился на МузТВ), словно злокачественная опухоль, разрастается трагедия человека, не способного самостоятельно выжить. Его мать умирает. И он заводит роман с двумя девушками. С двумя совершенно разными девушками он пытается найти замену маме. Конечно он не может выбрать лишь одну из них. Ему и не нужно выбирать. Он любит только маму. И в конце концов героиня Хизер Грэм это понимает. ..

10 из 10

Кинопоиск
Общее
Полное имя : E:VideoLjubovnyj.treugolnik.1997.XviD.BDRipLjubovnyj.treugolnik.1997.Original.eng.ac3
Формат : AC-3
Формат/Информация : Audio Coding 3
Размер файла : 274 Мбайт
Продолжительность : 1 ч. 25 м.
Режим общего битрейта : Постоянный
Общий поток : 448 Кбит/сек

Аудио
Формат : AC-3
Формат/Информация : Audio Coding 3
Расширение режима : CM (complete main)
Параметр Endianness формата : Big
Продолжительность : 1 ч. 25 м.
Вид битрейта : Постоянный
Битрейт : 448 Кбит/сек
Каналы : 6 каналов
Расположение каналов : Front: L C R, Side: L R, LFE
Частота : 48,0 КГц
Битовая глубина : 16 бит
Метод сжатия : С потерями
Размер потока : 274 Мбайт (100%)

Общее
Полное имя : E:VideoLjubovnyj.treugolnik.1997.XviD.BDRipLjubovnyj.treugolnik.1997.XviD.BDRip.avi
Формат : AVI
Формат/Информация : Audio Video Interleave
Размер файла : 1,53 Гбайт
Продолжительность : 1 ч. 25 м.
Общий поток : 2557 Кбит/сек
Программа кодирования : VirtualDubMod 1.5.10.2 (build 2540/release)
Библиотека кодирования : VirtualDubMod build 2540/release

Видео
Идентификатор : 0
Формат : MPEG-4 Visual
Профиль формата : Advanced Simple@L5
Параметр BVOP формата : 1
Параметр QPel формата : Нет
Параметр GMC формата : Без точки перехода
Параметр матрицы формата : Default (H.263)
Режим смешивания : Сжатый битовый поток
Идентификатор кодека : XVID
Идентификатор кодека/Подсказка : XviD
Продолжительность : 1 ч. 25 м.
Битрейт : 1902 Кбит/сек
Ширина : 720 пикселей
Высота : 384 пикселя
Соотношение сторон : 1,85:1
Частота кадров : 23,976 кадра/сек
Цветовое пространство : YUV
Субдискретизация насыщенности : 4:2:0
Битовая глубина : 8 бит
Тип развёртки : Прогрессивная
Метод сжатия : С потерями
Бит/(Пиксели*Кадры) : 0.287
Размер потока : 1,14 Гбайт (74%)
Библиотека кодирования : XviD 1.2.1 (UTC 2008-12-04)

Аудио #1
Идентификатор : 1
Формат : AC-3
Формат/Информация : Audio Coding 3
Расширение режима : CM (complete main)
Параметр Endianness формата : Big
Идентификатор кодека : 2000
Продолжительность : 1 ч. 25 м.
Вид битрейта : Постоянный
Битрейт : 192 Кбит/сек
Каналы : 2 канала
Расположение каналов : Front: L R
Частота : 48,0 КГц
Битовая глубина : 16 бит
Метод сжатия : С потерями
Размер потока : 118 Мбайт (8%)
Выравнивание : Разделение по промежуткам
Продолжительность промежутка : 42 мс. (1,00 видеокадр)
Время предзагрузки промежутка : 500 мс.

Аудио #2
Идентификатор : 2
Формат : AC-3
Формат/Информация : Audio Coding 3
Расширение режима : CM (complete main)
Параметр Endianness формата : Big
Идентификатор кодека : 2000
Продолжительность : 1 ч. 25 м.
Вид битрейта : Постоянный
Битрейт : 448 Кбит/сек
Каналы : 6 каналов
Расположение каналов : Front: L C R, Side: L R, LFE
Частота : 48,0 КГц
Битовая глубина : 16 бит
Метод сжатия : С потерями
Размер потока : 274 Мбайт (18%)
Выравнивание : Разделение по промежуткам
Продолжительность промежутка : 42 мс. (1,00 видеокадр)
Время предзагрузки промежутка : 500 мс.

Общее
Полное имя : E:VideoLjubovnyj.treugolnik.1997.XviD.BDRipLjubovnyj.treugolnik.1997eng.SDH.srt
Размер файла : 206 Кбайт

Общее
Полное имя : E:VideoLjubovnyj.treugolnik.1997.XviD.BDRipLjubovnyj.treugolnik.1997rus.А.Кисиленко (ненорм.).srt
Размер файла : 183 Кбайт



Скачать Любовный.треугольник.Two.Girls.and.a.Guy.(Джеймс.Тобэк).[1997.драма.комедия.BDRip].[DVO]+[AVO]+[Sub].torrent без регистрации
Золото ЗОЛОТАЯ РАЗДАЧА! СКАЧАННОЕ НЕ ЗАСЧИТЫВАЕТСЯ! Золото
Дата: Зарегистрирован   [ Тип: внутренний ] Как тут cкачать?
MAGNET ссылка
MAGNET ссылка


Скачать .torrent

19 KB

Статус: проверено DHT
Скачан: торрент - 104 раз, раздача полностью - 10 раз
Размер: 1,8 GB
Оценка:  - (Голосов: 0)
Поблагодарили: 0
Поделиться ссылкой на эту раздачу с друзьями:
В контактеFacebookОдноклассникиTwitterLivejournalМой МирLiveinternet
 

 
Показать сообщения:    


Вы не можете начинать темы
Вы не можете отвечать на сообщения
Вы не можете редактировать свои сообщения
Вы не можете удалять свои сообщения
Вы не можете голосовать в опросах
Вы не можете прикреплять файлы к сообщениям
Вы можете скачивать файлы