Loading...
Error

Скачать Тихий океан (Тихоокеанский фронт) / The Pacific (01-10 из 10) (Стивен Спилберг, Том Хэнкс, Гари Гоэцман и др) [2010, военный, драма, реальные события, BDRip] [720p] [MVO (LostFilm)]+3x[DVO]+[Eng] торрент без регистрации

 
Статистика раздачи
Размер:  21,83 GB   |    Скачан:  266 раз
Сидов:  1  [  0 KB/s  ]  
 
Автор Сообщение

МихаНЕзатор

[] 

Информация о фильме
Название: Тихий океан (Тихоокеанский фронт)
Оригинальное название: The Pacific
Год выхода: 2010
Жанр: военный, драма, реальные события
Режиссер: Стивен Спилберг, Том Хэнкс, Гари Гоэцман и др

В ролях: Боб Рамнок, Тоби Мур, Джошуа Битон, Джеймс Бэдж Дэйл, Джозеф Маццелло, Джон Седа, Джон Бернтал, Том Бадж, Джош Хелман, Эштон Холмс

Сюжет фильма: От создателей сериала «Братья по оружию.»
Сериал создан на основе мемуаров морских пехотинцев США Юджина Следжа и Роберта Леки, которые сражались в боях на Тихом океане во время Второй мировой войны. Сюжет описывает ключевые битвы, которые вошли в историю, глазами обычных солдат и их близких.



Выпущено: США, DreamWorks SKG, HBO Films, Playtone
Продолжительность: 10 x ~ 00:53:00
Перевод: Профессиональный Многоголосый закадровый, LostFilmTV ; Профессиональный Двухголосый закадровый, Кубик в Кубе; Профессиональный Двухголосый закадровый, П.Гланц и И.Королева; Оригинал
Чаптеры: есть

Релиз Группа | Автор Рипа:

АНОНСЫ ПОПУЛЯРНЫХ РАЗДАЧ

Описание: Роберт Леки и первый взвод морских пехотинцев высаживаются на остров Гуадалканал и принимают участие в Битве при Тенару.

Файл
Качество: BDRip 720p (исходник Blu-ray Disc)
Видео: 1280x720, 3 893 Kbps Кбит/сек, 23.976 кадр/сек, AVC, x264, 2-pass
Аудио1: AC-3, 448 Кбит/сек, 6 канала(ов), 48,0 КГц - Многоголосый закадровый, LostFilmTV
Аудио2: AC-3, 448 Кбит/сек, 6 канала(ов), 48,0 КГц - Двухголосый закадровый, Кубик в Кубе
Аудио3: AC-3, 448 Кбит/сек, 6 канала(ов), 48,0 КГц - Двухголосый закадровый, П.Гланц и И.Королева
Аудио4: AC-3, 448 Кбит/сек, 6 канала(ов), 48,0 КГц - English

Скриншоты & MediaInfo

MediaInfo
Format : Matroska
Format version : Version 4 / Version 2
File size : 2.18 GiB
Duration : 54mn 57s
Overall bit rate : 5 686 Kbps
Movie name : Тихий океан.1серия.Гуадалканал.(2010).BDRip.720p.NoLimits-Team
Encoded date : UTC 2013-07-30 12:56:24
Writing application : mkvmerge v6.3.0 ('You can't stop me!') built on Jun 28 2013 20:09:41
Writing library : libebml v1.3.0 + libmatroska v1.4.0

Video
ID : 1
Format : AVC
Format/Info : Advanced Video Codec
Format profile : High@L4.1
Format settings, CABAC : Yes
Format settings, ReFrames : 9 frames
Codec ID : V_MPEG4/ISO/AVC
Duration : 54mn 57s
Bit rate : 3 893 Kbps
Width : 1 280 pixels
Height : 720 pixels
Display aspect ratio : 16:9
Frame rate mode : Constant
Frame rate : 23.976 fps
Color space : YUV
Chroma subsampling : 4:2:0
Bit depth : 8 bits
Scan type : Progressive
Bits/(Pixel*Frame) : 0.176
Stream size : 1.45 GiB (66%)
Title : Тихий океан.1серия.Гуадалканал.(2010).BDRip.720p от NoLimits-Team Release_denis_100
Writing library : x264 core 135 r2345 f0c1c53
Encoding settings : cabac=1 / ref=9 / deblock=1:0:0 / analyse=0x3:0x113 / me=umh / subme=11 / psy=1 / psy_rd=1.00:0.15 / mixed_ref=1 / me_range=32 / chroma_me=1 / trellis=2 / 8x8dct=1 / cqm=0 / deadzone=21,11 /

fast_pskip=0 / chroma_qp_offset=-3 / threads=6 / lookahead_threads=1 / sliced_threads=0 / nr=0 / decimate=0 / interlaced=0 / bluray_compat=0 / constrained_intra=0 / bframes=7 / b_pyramid=2 / b_adapt=2 / b_bias=0 / direct=3 / weightb=1 /

open_gop=0 / weightp=2 / keyint=240 / keyint_min=23 / scenecut=40 / intra_refresh=0 / rc=2pass / mbtree=0 / bitrate=3893 / ratetol=1.0 / qcomp=0.60 / qpmin=0 / qpmax=69 / qpstep=4 / cplxblur=20.0 / qblur=0.5 / ip_ratio=1.40 /

pb_ratio=1.30 / aq=1:0.95
Language : English
Default : Yes
Forced : No

Audio #1
ID : 2
Format : AC-3
Format/Info : Audio Coding 3
Mode extension : CM (complete main)
Format settings, Endianness : Big
Codec ID : A_AC3
Duration : 54mn 57s
Bit rate mode : Constant
Bit rate : 448 Kbps
Channel count : 6 channels
Channel positions : Front: L C R, Side: L R, LFE
Sampling rate : 48.0 KHz
Bit depth : 16 bits
Compression mode : Lossy
Stream size : 176 MiB (8%)
Title : Многоголосый закадровый, LostFilmTV
Language : Russian
Default : No
Forced : No

Audio #2
ID : 3
Format : AC-3
Format/Info : Audio Coding 3
Mode extension : CM (complete main)
Format settings, Endianness : Big
Codec ID : A_AC3
Duration : 54mn 57s
Bit rate mode : Constant
Bit rate : 448 Kbps
Channel count : 6 channels
Channel positions : Front: L C R, Side: L R, LFE
Sampling rate : 48.0 KHz
Bit depth : 16 bits
Compression mode : Lossy
Stream size : 176 MiB (8%)
Title : Двухголосый закадровый, Кубик в Кубе
Language : Russian
Default : No
Forced : No

Audio #3
ID : 4
Format : AC-3
Format/Info : Audio Coding 3
Mode extension : CM (complete main)
Format settings, Endianness : Big
Codec ID : A_AC3
Duration : 54mn 57s
Bit rate mode : Constant
Bit rate : 448 Kbps
Channel count : 6 channels
Channel positions : Front: L C R, Side: L R, LFE
Sampling rate : 48.0 KHz
Bit depth : 16 bits
Compression mode : Lossy
Stream size : 176 MiB (8%)
Title : Двухголосый закадровый, П.Гланц и И.Королева
Language : Russian
Default : Yes
Forced : No

Audio #4
ID : 5
Format : AC-3
Format/Info : Audio Coding 3
Mode extension : CM (complete main)
Format settings, Endianness : Big
Codec ID : A_AC3
Duration : 54mn 57s
Bit rate mode : Constant
Bit rate : 448 Kbps
Channel count : 6 channels
Channel positions : Front: L C R, Side: L R, LFE
Sampling rate : 48.0 KHz
Bit depth : 16 bits
Compression mode : Lossy
Stream size : 176 MiB (8%)
Title : English
Language : English
Default : No
Forced : No

Menu
00:00:00.000 : en:Chapter 01
00:02:52.711 : en:Chapter 02
00:05:44.634 : en:Chapter 03
00:13:18.070 : en:Chapter 04
00:18:47.615 : en:Chapter 05
00:30:16.181 : en:Chapter 06
00:36:47.954 : en:Chapter 07
00:41:44.177 : en:Chapter 08
00:50:43.789 : en:Chapter 09
00:54:56.800 : en:Chapter 10

Описание: Бэзилоун и 7- ая дивизия морских пехотинцев прибывают на Гуадалканал, для поддержки Леки и остальной части 1-ого дивизиона морской пехоты, поскольку они продолжают защищать взлетно - посадочную полосу. Бэзилоун играет

ключевую роль в отпоре ночного японского нападения, но несет ужасную личную потерю. После четырех месяцев непрерывного действия опустошенные и находящиеся во власти болезни, участники 1-ого Морского дивизиона эвакуированы с острова.

Файл
Качество: BDRip 720p (исходник Blu-ray Disc)
Видео: 1280x720, 4 102 Kbps Кбит/сек, 23.976 кадр/сек, AVC, x264, 2-pass
Аудио1: AC-3, 448 Кбит/сек, 6 канала(ов), 48,0 КГц - Многоголосый закадровый, LostFilmTV
Аудио2: AC-3, 448 Кбит/сек, 6 канала(ов), 48,0 КГц - Двухголосый закадровый, Кубик в Кубе
Аудио3: AC-3, 448 Кбит/сек, 6 канала(ов), 48,0 КГц - Двухголосый закадровый, П.Гланц и И.Королева
Аудио4: AC-3, 448 Кбит/сек, 6 канала(ов), 48,0 КГц - English

Скриншоты & MediaInfo


MediaInfo
Format : Matroska
Format version : Version 4 / Version 2
File size : 2.18 GiB
Duration : 53mn 0s
Overall bit rate : 5 896 Kbps
Movie name : Тихий океан.2серия.Бэсилоун.(2010).BDRip.720p.NoLimits-Team
Encoded date : UTC 2013-08-11 08:53:46
Writing application : mkvmerge v6.3.0 ('You can't stop me!') built on Jun 28 2013 20:09:41
Writing library : libebml v1.3.0 + libmatroska v1.4.0

Video
ID : 1
Format : AVC
Format/Info : Advanced Video Codec
Format profile : High@L4.1
Format settings, CABAC : Yes
Format settings, ReFrames : 9 frames
Codec ID : V_MPEG4/ISO/AVC
Duration : 53mn 0s
Bit rate : 4 102 Kbps
Width : 1 280 pixels
Height : 720 pixels
Display aspect ratio : 16:9
Frame rate mode : Constant
Frame rate : 23.976 fps
Color space : YUV
Chroma subsampling : 4:2:0
Bit depth : 8 bits
Scan type : Progressive
Bits/(Pixel*Frame) : 0.186
Stream size : 1.48 GiB (68%)
Title : Тихий океан.2серия.Бэсилоун.(2010).BDRip.720p от NoLimits-Team Release_denis_100
Writing library : x264 core 135 r2345 f0c1c53
Encoding settings : cabac=1 / ref=9 / deblock=1:0:0 / analyse=0x3:0x113 / me=umh / subme=11 / psy=1 / psy_rd=1.00:0.15 / mixed_ref=1 / me_range=32 / chroma_me=1 / trellis=2 / 8x8dct=1 / cqm=0 / deadzone=21,11 /

fast_pskip=0 / chroma_qp_offset=-3 / threads=6 / lookahead_threads=1 / sliced_threads=0 / nr=0 / decimate=0 / interlaced=0 / bluray_compat=0 / constrained_intra=0 / bframes=7 / b_pyramid=2 / b_adapt=2 / b_bias=0 / direct=3 / weightb=1 /

open_gop=0 / weightp=2 / keyint=240 / keyint_min=23 / scenecut=40 / intra_refresh=0 / rc=2pass / mbtree=0 / bitrate=4102 / ratetol=1.0 / qcomp=0.60 / qpmin=0 / qpmax=69 / qpstep=4 / cplxblur=20.0 / qblur=0.5 / ip_ratio=1.40 /

pb_ratio=1.30 / aq=1:0.95
Language : English
Default : Yes
Forced : No

Audio #1
ID : 2
Format : AC-3
Format/Info : Audio Coding 3
Mode extension : CM (complete main)
Format settings, Endianness : Big
Codec ID : A_AC3
Duration : 53mn 0s
Bit rate mode : Constant
Bit rate : 448 Kbps
Channel count : 6 channels
Channel positions : Front: L C R, Side: L R, LFE
Sampling rate : 48.0 KHz
Bit depth : 16 bits
Compression mode : Lossy
Stream size : 170 MiB (8%)
Title : Многоголосый закадровый, LostFilmTV
Language : Russian
Default : No
Forced : No

Audio #2
ID : 3
Format : AC-3
Format/Info : Audio Coding 3
Mode extension : CM (complete main)
Format settings, Endianness : Big
Codec ID : A_AC3
Duration : 53mn 0s
Bit rate mode : Constant
Bit rate : 448 Kbps
Channel count : 6 channels
Channel positions : Front: L C R, Side: L R, LFE
Sampling rate : 48.0 KHz
Bit depth : 16 bits
Compression mode : Lossy
Stream size : 170 MiB (8%)
Title : Двухголосый закадровый, Кубик в Кубе
Language : Russian
Default : No
Forced : No

Audio #3
ID : 4
Format : AC-3
Format/Info : Audio Coding 3
Mode extension : CM (complete main)
Format settings, Endianness : Big
Codec ID : A_AC3
Duration : 53mn 0s
Bit rate mode : Constant
Bit rate : 448 Kbps
Channel count : 6 channels
Channel positions : Front: L C R, Side: L R, LFE
Sampling rate : 48.0 KHz
Bit depth : 16 bits
Compression mode : Lossy
Stream size : 170 MiB (8%)
Title : Двухголосый закадровый, П.Гланц и И.Королева
Language : Russian
Default : No
Forced : No

Audio #4
ID : 5
Format : AC-3
Format/Info : Audio Coding 3
Mode extension : CM (complete main)
Format settings, Endianness : Big
Codec ID : A_AC3
Duration : 53mn 0s
Bit rate mode : Constant
Bit rate : 448 Kbps
Channel count : 6 channels
Channel positions : Front: L C R, Side: L R, LFE
Sampling rate : 48.0 KHz
Bit depth : 16 bits
Compression mode : Lossy
Stream size : 170 MiB (8%)
Title : English
Language : Russian
Default : No
Forced : No

Menu
00:00:00.000 : en:00:00:00.000
00:02:41.911 : en:00:02:41.911
00:05:34.665 : en:00:05:34.665
00:10:40.846 : en:00:10:40.846
00:17:50.977 : en:00:17:50.977
00:25:29.343 : en:00:25:29.343
00:36:13.460 : en:00:36:13.460
00:41:21.768 : en:00:41:21.768
00:48:47.672 : en:00:48:47.672

Описание: 1-ая Дивизия морских пехотинцев из Гуадалканала прибывает в Мельбурн, Австралия. Бэзилоун получает Медаль За Отвагу и возвращается домой, чтобы продать военные облигации.

Файл
Качество: BDRip 720p (исходник Blu-ray Disc)
Видео: 1280x720, 3 538 Kbps Кбит/сек, 23.976 кадр/сек, AVC, x264, 2-pass
Аудио1: AC-3, 448 Кбит/сек, 6 канала(ов), 48,0 КГц - Многоголосый закадровый, LostFilmTV
Аудио2: AC-3, 448 Кбит/сек, 6 канала(ов), 48,0 КГц - Двухголосый закадровый, Кубик в Кубе
Аудио3: AC-3, 448 Кбит/сек, 6 канала(ов), 48,0 КГц - Двухголосый закадровый, П.Гланц и И.Королева
Аудио4: AC-3, 448 Кбит/сек, 6 канала(ов), 48,0 КГц - English

Скриншоты & MediaInfo


MediaInfo
Format : Matroska
Format version : Version 4 / Version 2
File size : 2.18 GiB
Duration : 58mn 37s
Overall bit rate : 5 332 Kbps
Movie name : Тихий океан.3серия.Мельбурн.(2010).BDRip.720p.NoLimits-Team
Encoded date : UTC 2013-08-11 08:45:08
Writing application : mkvmerge v6.3.0 ('You can't stop me!') built on Jun 28 2013 20:09:41
Writing library : libebml v1.3.0 + libmatroska v1.4.0

Video
ID : 1
Format : AVC
Format/Info : Advanced Video Codec
Format profile : High@L4.1
Format settings, CABAC : Yes
Format settings, ReFrames : 9 frames
Codec ID : V_MPEG4/ISO/AVC
Duration : 58mn 37s
Bit rate : 3 538 Kbps
Width : 1 280 pixels
Height : 720 pixels
Display aspect ratio : 16:9
Frame rate mode : Constant
Frame rate : 23.976 fps
Color space : YUV
Chroma subsampling : 4:2:0
Bit depth : 8 bits
Scan type : Progressive
Bits/(Pixel*Frame) : 0.160
Stream size : 1.41 GiB (64%)
Title : Тихий океан.3серия.Мельбурн.(2010).BDRip.720p от NoLimits-Team Release_denis_100
Writing library : x264 core 135 r2345 f0c1c53
Encoding settings : cabac=1 / ref=9 / deblock=1:0:0 / analyse=0x3:0x113 / me=umh / subme=11 / psy=1 / psy_rd=1.00:0.15 / mixed_ref=1 / me_range=32 / chroma_me=1 / trellis=2 / 8x8dct=1 / cqm=0 / deadzone=21,11 /

fast_pskip=0 / chroma_qp_offset=-3 / threads=6 / lookahead_threads=1 / sliced_threads=0 / nr=0 / decimate=0 / interlaced=0 / bluray_compat=0 / constrained_intra=0 / bframes=7 / b_pyramid=2 / b_adapt=2 / b_bias=0 / direct=3 / weightb=1 /

open_gop=0 / weightp=2 / keyint=240 / keyint_min=23 / scenecut=40 / intra_refresh=0 / rc=2pass / mbtree=0 / bitrate=3538 / ratetol=1.0 / qcomp=0.60 / qpmin=0 / qpmax=69 / qpstep=4 / cplxblur=20.0 / qblur=0.5 / ip_ratio=1.40 /

pb_ratio=1.30 / aq=1:0.95
Language : English
Default : Yes
Forced : No

Audio #1
ID : 2
Format : AC-3
Format/Info : Audio Coding 3
Mode extension : CM (complete main)
Format settings, Endianness : Big
Codec ID : A_AC3
Duration : 58mn 37s
Bit rate mode : Constant
Bit rate : 448 Kbps
Channel count : 6 channels
Channel positions : Front: L C R, Side: L R, LFE
Sampling rate : 48.0 KHz
Bit depth : 16 bits
Compression mode : Lossy
Stream size : 188 MiB (8%)
Title : Многоголосый закадровый, LostFilmTV
Language : Russian
Default : No
Forced : No

Audio #2
ID : 3
Format : AC-3
Format/Info : Audio Coding 3
Mode extension : CM (complete main)
Format settings, Endianness : Big
Codec ID : A_AC3
Duration : 58mn 37s
Bit rate mode : Constant
Bit rate : 448 Kbps
Channel count : 6 channels
Channel positions : Front: L C R, Side: L R, LFE
Sampling rate : 48.0 KHz
Bit depth : 16 bits
Compression mode : Lossy
Stream size : 188 MiB (8%)
Title : Двухголосый закадровый, Кубик в Кубе
Language : Russian
Default : No
Forced : No

Audio #3
ID : 4
Format : AC-3
Format/Info : Audio Coding 3
Mode extension : CM (complete main)
Format settings, Endianness : Big
Codec ID : A_AC3
Duration : 58mn 37s
Bit rate mode : Constant
Bit rate : 448 Kbps
Channel count : 6 channels
Channel positions : Front: L C R, Side: L R, LFE
Sampling rate : 48.0 KHz
Bit depth : 16 bits
Compression mode : Lossy
Stream size : 188 MiB (8%)
Title : Двухголосый закадровый, П.Гланц и И.Королева
Language : Russian
Default : No
Forced : No

Audio #4
ID : 5
Format : AC-3
Format/Info : Audio Coding 3
Mode extension : CM (complete main)
Format settings, Endianness : Big
Codec ID : A_AC3
Duration : 58mn 37s
Bit rate mode : Constant
Bit rate : 448 Kbps
Channel count : 6 channels
Channel positions : Front: L C R, Side: L R, LFE
Sampling rate : 48.0 KHz
Bit depth : 16 bits
Compression mode : Lossy
Stream size : 188 MiB (8%)
Title : English
Language : English
Default : No
Forced : No

Menu
00:00:00.000 : en:00:00:00.000
00:02:17.887 : en:00:02:17.887
00:05:10.434 : en:00:05:10.434
00:13:41.785 : en:00:13:41.785
00:19:10.049 : en:00:19:10.049
00:33:46.094 : en:00:33:46.094
00:39:34.119 : en:00:39:34.119
00:47:59.150 : en:00:47:59.150
00:54:24.010 : en:00:54:24.010

Описание: Юджин Следж вербуется в Морские пехотинцы и едет сражаться, в то время как Лекки и 1-ое подразделение морской пехоты отправлены на Мыс Глостер. Лекки лечат от энуреза.

Файл
Качество: BDRip 720p (исходник Blu-ray Disc)
Видео: 1280x720, 4 037 Kbps Кбит/сек, 23.976 кадр/сек, AVC, x264, 2-pass
Аудио1: AC-3, 448 Кбит/сек, 6 канала(ов), 48,0 КГц - Многоголосый закадровый, LostFilmTV
Аудио2: AC-3, 448 Кбит/сек, 6 канала(ов), 48,0 КГц - Двухголосый закадровый, Кубик в Кубе
Аудио3: AC-3, 448 Кбит/сек, 6 канала(ов), 48,0 КГц - Двухголосый закадровый, П.Гланц и И.Королева
Аудио4: AC-3, 448 Кбит/сек, 6 канала(ов), 48,0 КГц - English

Скриншоты & MediaInfo


MediaInfo
Format : Matroska
Format version : Version 2
File size : 2.18 GiB
Duration : 53mn 36s
Overall bit rate : 5 831 Kbps
Movie name : Тихий океан.4серия.Глостер.Павуву.Баника.(2010).BDRip.720p.[denis100]
Encoded date : UTC 2013-10-07 20:04:31
Writing application : mkvmerge v5.8.0 ('No Sleep / Pillow') built on Sep 2 2012 15:37:04
Writing library : libebml v1.2.3 + libmatroska v1.3.0

Video
ID : 1
Format : AVC
Format/Info : Advanced Video Codec
Format profile : High@L4.1
Format settings, CABAC : Yes
Format settings, ReFrames : 9 frames
Codec ID : V_MPEG4/ISO/AVC
Duration : 53mn 36s
Bit rate : 4 037 Kbps
Width : 1 280 pixels
Height : 720 pixels
Display aspect ratio : 16:9
Frame rate mode : Constant
Frame rate : 23.976 fps
Color space : YUV
Chroma subsampling : 4:2:0
Bit depth : 8 bits
Scan type : Progressive
Bits/(Pixel*Frame) : 0.183
Stream size : 1.47 GiB (67%)
Title : Тихий океан.4серия.Глостер.Павуву.Баника.(2010).BDRip.720p.[denis100]
Writing library : x264 core 138 r2358 9e941d1
Encoding settings : cabac=1 / ref=9 / deblock=1:0:0 / analyse=0x3:0x113 / me=umh / subme=11 / psy=1 / psy_rd=1.00:0.15 / mixed_ref=1 / me_range=32 / chroma_me=1 / trellis=2 / 8x8dct=1 / cqm=0 / deadzone=21,11 /

fast_pskip=0 / chroma_qp_offset=-3 / threads=6 / lookahead_threads=1 / sliced_threads=0 / nr=0 / decimate=0 / interlaced=0 / bluray_compat=0 / constrained_intra=0 / bframes=7 / b_pyramid=2 / b_adapt=2 / b_bias=0 / direct=3 / weightb=1 /

open_gop=0 / weightp=2 / keyint=240 / keyint_min=23 / scenecut=40 / intra_refresh=0 / rc=2pass / mbtree=0 / bitrate=4037 / ratetol=1.0 / qcomp=0.60 / qpmin=0 / qpmax=69 / qpstep=4 / cplxblur=20.0 / qblur=0.5 / ip_ratio=1.40 /

pb_ratio=1.30 / aq=1:0.95
Language : English
Default : No
Forced : No

Audio #1
ID : 2
Format : AC-3
Format/Info : Audio Coding 3
Mode extension : CM (complete main)
Format settings, Endianness : Big
Codec ID : A_AC3
Duration : 53mn 36s
Bit rate mode : Constant
Bit rate : 448 Kbps
Channel count : 6 channels
Channel positions : Front: L C R, Side: L R, LFE
Sampling rate : 48.0 KHz
Bit depth : 16 bits
Compression mode : Lossy
Stream size : 172 MiB (8%)
Title : Многоголосый закадровый, LostFilmTV
Language : Russian
Default : No
Forced : No

Audio #2
ID : 3
Format : AC-3
Format/Info : Audio Coding 3
Mode extension : CM (complete main)
Format settings, Endianness : Big
Codec ID : A_AC3
Duration : 53mn 36s
Bit rate mode : Constant
Bit rate : 448 Kbps
Channel count : 6 channels
Channel positions : Front: L C R, Side: L R, LFE
Sampling rate : 48.0 KHz
Bit depth : 16 bits
Compression mode : Lossy
Stream size : 172 MiB (8%)
Title : Двухголосый закадровый, Кубик в Кубе
Language : Russian
Default : No
Forced : No

Audio #3
ID : 4
Format : AC-3
Format/Info : Audio Coding 3
Mode extension : CM (complete main)
Format settings, Endianness : Big
Codec ID : A_AC3
Duration : 53mn 36s
Bit rate mode : Constant
Bit rate : 448 Kbps
Channel count : 6 channels
Channel positions : Front: L C R, Side: L R, LFE
Sampling rate : 48.0 KHz
Bit depth : 16 bits
Compression mode : Lossy
Stream size : 172 MiB (8%)
Title : Двухголосый закадровый, П.Гланц и И.Королева
Language : Russian
Default : No
Forced : No

Audio #4
ID : 5
Format : AC-3
Format/Info : Audio Coding 3
Mode extension : CM (complete main)
Format settings, Endianness : Big
Codec ID : A_AC3
Duration : 53mn 36s
Bit rate mode : Constant
Bit rate : 448 Kbps
Channel count : 6 channels
Channel positions : Front: L C R, Side: L R, LFE
Sampling rate : 48.0 KHz
Bit depth : 16 bits
Compression mode : Lossy
Stream size : 172 MiB (8%)
Title : English
Language : English
Default : No
Forced : No

Menu
00:00:00.000 : en:00:00:00.000
00:02:29.149 : en:00:02:29.149
00:05:21.737 : en:00:05:21.737
00:13:12.341 : en:00:13:12.341
00:21:14.095 : en:00:21:14.095
00:29:05.367 : en:00:29:05.367
00:35:28.708 : en:00:35:28.708
00:42:39.739 : en:00:42:39.739
00:49:24.378 : en:00:49:24.378

Описание: Знаменитость Бэзилоуна растет, он путешествует по всей стране и продает облигаций. На Павуву Следж, назначенный к 5-ому корпусу Морской пехоты воссоединяется с 1-ым подразделением морских пехотинцев, в компании с
Филипсом, и Лекки. Следж тогда получают первый боевой опыт, он как и Лекки, а также остальная часть 1-ого подразделения морских пехотинцев встречает жестокое сопротивление японцев, когда приземляются на хитро защищенный коралловый остров
Пилелиу.

Файл
Качество: BDRip 720p (исходник Blu-ray Disc)
Видео: 1280x720, 4 248 Kbps Кбит/сек, 23.976 кадр/сек, AVC, x264, 2-pass
Аудио1: AC-3, 448 Кбит/сек, 6 канала(ов), 48,0 КГц - Многоголосый закадровый, LostFilmTV
Аудио2: AC-3, 448 Кбит/сек, 6 канала(ов), 48,0 КГц - Двухголосый закадровый, Кубик в Кубе
Аудио3: AC-3, 448 Кбит/сек, 6 канала(ов), 48,0 КГц - Двухголосый закадровый, П.Гланц и И.Королева
Аудио4: AC-3, 448 Кбит/сек, 6 канала(ов), 48,0 КГц - English
Скриншоты & MediaInfo


MediaInfo
Format : Matroska
Format version : Version 2
File size : 2.18 GiB
Duration : 51mn 44s
Overall bit rate : 6 041 Kbps
Movie name : Тихий океан.5серия.Высадка на Палау.(2010).BDRip.720p.[denis100]
Encoded date : UTC 2013-10-13 16:02:16
Writing application : mkvmerge v5.8.0 ('No Sleep / Pillow') built on Sep 2 2012 15:37:04
Writing library : libebml v1.2.3 + libmatroska v1.3.0

Video
ID : 1
Format : AVC
Format/Info : Advanced Video Codec
Format profile : High@L4.1
Format settings, CABAC : Yes
Format settings, ReFrames : 9 frames
Codec ID : V_MPEG4/ISO/AVC
Duration : 51mn 44s
Bit rate : 4 248 Kbps
Width : 1 280 pixels
Height : 720 pixels
Display aspect ratio : 16:9
Frame rate mode : Constant
Frame rate : 23.976 fps
Color space : YUV
Chroma subsampling : 4:2:0
Bit depth : 8 bits
Scan type : Progressive
Bits/(Pixel*Frame) : 0.192
Stream size : 1.49 GiB (68%)
Title : Тихий океан.5серия.Высадка на Палау.(2010).BDRip.720p.[denis100]
Writing library : x264 core 138 r2358 9e941d1
Encoding settings : cabac=1 / ref=9 / deblock=1:0:0 / analyse=0x3:0x133 / me=umh / subme=11 / psy=1 / psy_rd=1.00:0.10 / mixed_ref=1 / me_range=32 / chroma_me=1 / trellis=2 / 8x8dct=1 / cqm=0 / deadzone=21,11 /

fast_pskip=0 / chroma_qp_offset=-3 / threads=6 / lookahead_threads=1 / sliced_threads=0 / nr=0 / decimate=0 / interlaced=0 / bluray_compat=0 / constrained_intra=0 / bframes=7 / b_pyramid=2 / b_adapt=2 / b_bias=0 / direct=3 / weightb=1 /

open_gop=0 / weightp=2 / keyint=240 / keyint_min=23 / scenecut=40 / intra_refresh=0 / rc=2pass / mbtree=0 / bitrate=4248 / ratetol=1.0 / qcomp=0.60 / qpmin=0 / qpmax=69 / qpstep=4 / cplxblur=20.0 / qblur=0.5 / ip_ratio=1.40 /

pb_ratio=1.30 / aq=1:0.90
Language : English
Default : Yes
Forced : No

Audio #1
ID : 2
Format : AC-3
Format/Info : Audio Coding 3
Mode extension : CM (complete main)
Format settings, Endianness : Big
Codec ID : A_AC3
Duration : 51mn 44s
Bit rate mode : Constant
Bit rate : 448 Kbps
Channel count : 6 channels
Channel positions : Front: L C R, Side: L R, LFE
Sampling rate : 48.0 KHz
Bit depth : 16 bits
Compression mode : Lossy
Stream size : 166 MiB (7%)
Title : Многоголосый закадровый, LostFilmTV
Language : Russian
Default : No
Forced : No

Audio #2
ID : 3
Format : AC-3
Format/Info : Audio Coding 3
Mode extension : CM (complete main)
Format settings, Endianness : Big
Codec ID : A_AC3
Duration : 51mn 44s
Bit rate mode : Constant
Bit rate : 448 Kbps
Channel count : 6 channels
Channel positions : Front: L C R, Side: L R, LFE
Sampling rate : 48.0 KHz
Bit depth : 16 bits
Compression mode : Lossy
Stream size : 166 MiB (7%)
Title : Двухголосый закадровый, Кубик в Кубе
Language : Russian
Default : No
Forced : No

Audio #3
ID : 4
Format : AC-3
Format/Info : Audio Coding 3
Mode extension : CM (complete main)
Format settings, Endianness : Big
Codec ID : A_AC3
Duration : 51mn 44s
Bit rate mode : Constant
Bit rate : 448 Kbps
Channel count : 6 channels
Channel positions : Front: L C R, Side: L R, LFE
Sampling rate : 48.0 KHz
Bit depth : 16 bits
Compression mode : Lossy
Stream size : 166 MiB (7%)
Title : Двухголосый закадровый, П.Гланц и И.Королева
Language : Russian
Default : No
Forced : No

Audio #4
ID : 5
Format : AC-3
Format/Info : Audio Coding 3
Mode extension : CM (complete main)
Format settings, Endianness : Big
Codec ID : A_AC3
Duration : 51mn 44s
Bit rate mode : Constant
Bit rate : 448 Kbps
Channel count : 6 channels
Channel positions : Front: L C R, Side: L R, LFE
Sampling rate : 48.0 KHz
Bit depth : 16 bits
Compression mode : Lossy
Stream size : 166 MiB (7%)
Title : English
Language : English
Default : No
Forced : No

Menu
00:00:00.000 : en:00:00:00.000
00:02:35.905 : en:00:02:35.905
00:05:28.660 : en:00:05:28.660
00:08:09.528 : en:00:08:09.528
00:15:53.868 : en:00:15:53.868
00:26:14.028 : en:00:26:14.028
00:31:25.382 : en:00:31:25.382
00:41:20.851 : en:00:41:20.851
00:47:31.056 : en:00:47:31.056

Описание: Несмотря на удушающую высокую температуру и нехватку чистой питьевой воды, Слэдж, Лекки и другие морские пехотинцы сражаются против хорошо укрепленного врага, т.к они пытаются захватить аэродром Пилелеу. После тяжело
раненых товарищей сам Лекки также ранен и эвакуируется с острова. А Следж становиться свидетелем шокирующей правды о том, что иногда требуются для сражения и выживания.

Файл
Качество: BDRip 720p (исходник Blu-ray Disc)
Видео: 1280x720, 4 250 Kbps Кбит/сек, 23.976 кадр/сек, AVC, x264, 2-pass
Аудио1: AC-3, 448 Кбит/сек, 6 канала(ов), 48,0 КГц - Многоголосый закадровый, LostFilmTV
Аудио2: AC-3, 448 Кбит/сек, 6 канала(ов), 48,0 КГц - Двухголосый закадровый, Кубик в Кубе
Аудио3: AC-3, 448 Кбит/сек, 6 канала(ов), 48,0 КГц - Двухголосый закадровый, П.Гланц и И.Королева
Аудио4: AC-3, 448 Кбит/сек, 6 канала(ов), 48,0 КГц - English

Скриншоты & MediaInfo


MediaInfo
Format : Matroska
Format version : Version 2
File size : 2.18 GiB
Duration : 51mn 42s
Overall bit rate : 6 043 Kbps
Movie name : Тихий океан.6серия.Аэродром Палау.(2010).BDRip.720p.[denis100]
Encoded date : UTC 2013-10-13 16:24:16
Writing application : mkvmerge v5.8.0 ('No Sleep / Pillow') built on Sep 2 2012 15:37:04
Writing library : libebml v1.2.3 + libmatroska v1.3.0

Video
ID : 1
Format : AVC
Format/Info : Advanced Video Codec
Format profile : High@L4.1
Format settings, CABAC : Yes
Format settings, ReFrames : 9 frames
Codec ID : V_MPEG4/ISO/AVC
Duration : 51mn 42s
Bit rate : 4 250 Kbps
Width : 1 280 pixels
Height : 720 pixels
Display aspect ratio : 16:9
Frame rate mode : Constant
Frame rate : 23.976 fps
Color space : YUV
Chroma subsampling : 4:2:0
Bit depth : 8 bits
Scan type : Progressive
Bits/(Pixel*Frame) : 0.192
Stream size : 1.49 GiB (68%)
Title : Тихий океан.6серия.Аэродром Палау.(2010).BDRip.720p.[denis100]
Writing library : x264 core 138 r2358 9e941d1
Encoding settings : cabac=1 / ref=9 / deblock=1:0:0 / analyse=0x3:0x133 / me=umh / subme=11 / psy=1 / psy_rd=1.00:0.10 / mixed_ref=1 / me_range=32 / chroma_me=1 / trellis=2 / 8x8dct=1 / cqm=0 / deadzone=21,11 /

fast_pskip=0 / chroma_qp_offset=-3 / threads=6 / lookahead_threads=1 / sliced_threads=0 / nr=0 / decimate=0 / interlaced=0 / bluray_compat=0 / constrained_intra=0 / bframes=7 / b_pyramid=2 / b_adapt=2 / b_bias=0 / direct=3 / weightb=1 /

open_gop=0 / weightp=2 / keyint=240 / keyint_min=23 / scenecut=40 / intra_refresh=0 / rc=2pass / mbtree=0 / bitrate=4250 / ratetol=1.0 / qcomp=0.60 / qpmin=0 / qpmax=69 / qpstep=4 / cplxblur=20.0 / qblur=0.5 / ip_ratio=1.40 /

pb_ratio=1.30 / aq=1:0.90
Language : English
Default : Yes
Forced : No

Audio #1
ID : 2
Format : AC-3
Format/Info : Audio Coding 3
Mode extension : CM (complete main)
Format settings, Endianness : Big
Codec ID : A_AC3
Duration : 51mn 42s
Bit rate mode : Constant
Bit rate : 448 Kbps
Channel count : 6 channels
Channel positions : Front: L C R, Side: L R, LFE
Sampling rate : 48.0 KHz
Bit depth : 16 bits
Compression mode : Lossy
Stream size : 166 MiB (7%)
Title : Многоголосый закадровый, LostFilmTV
Language : Russian
Default : No
Forced : No

Audio #2
ID : 3
Format : AC-3
Format/Info : Audio Coding 3
Mode extension : CM (complete main)
Format settings, Endianness : Big
Codec ID : A_AC3
Duration : 51mn 42s
Bit rate mode : Constant
Bit rate : 448 Kbps
Channel count : 6 channels
Channel positions : Front: L C R, Side: L R, LFE
Sampling rate : 48.0 KHz
Bit depth : 16 bits
Compression mode : Lossy
Stream size : 166 MiB (7%)
Title : Двухголосый закадровый, Кубик в Кубе
Language : Russian
Default : No
Forced : No

Audio #3
ID : 4
Format : AC-3
Format/Info : Audio Coding 3
Mode extension : CM (complete main)
Format settings, Endianness : Big
Codec ID : A_AC3
Duration : 51mn 42s
Bit rate mode : Constant
Bit rate : 448 Kbps
Channel count : 6 channels
Channel positions : Front: L C R, Side: L R, LFE
Sampling rate : 48.0 KHz
Bit depth : 16 bits
Compression mode : Lossy
Stream size : 166 MiB (7%)
Title : Двухголосый закадровый, П.Гланц и И.Королева
Language : Russian
Default : No
Forced : No

Audio #4
ID : 5
Format : AC-3
Format/Info : Audio Coding 3
Mode extension : CM (complete main)
Format settings, Endianness : Big
Codec ID : A_AC3
Duration : 51mn 42s
Bit rate mode : Constant
Bit rate : 448 Kbps
Channel count : 6 channels
Channel positions : Front: L C R, Side: L R, LFE
Sampling rate : 48.0 KHz
Bit depth : 16 bits
Compression mode : Lossy
Stream size : 166 MiB (7%)
Title : English
Language : English
Default : No
Forced : No

Menu
00:00:00.000 : en:00:00:00.000
00:02:01.203 : en:00:02:01.203
00:04:53.959 : en:00:04:53.959
00:07:17.978 : en:00:07:17.978
00:15:02.616 : en:00:15:02.616
00:25:22.877 : en:00:25:22.877
00:30:34.330 : en:00:30:34.330
00:40:29.300 : en:00:40:29.300
00:47:30.804 : en:00:47:30.804

Описание: Морские пехотинцы, включая недавно окрещенного в бою 'Кувалду', продолжают, сражение за Пилелиу против врага, готового сражаться до последнего бойца. Опустошенный и разбитый потерей наставника, Следж подходит к краю
морального краха. Морские пехотинцы закаленные в боях Пилелиу возвращаются на Павуву, чтобы навалять противнику с еще большим усердием.

Файл
Качество: BDRip 720p (исходник Blu-ray Disc)
Видео: 1280x720, 4 120 Kbps Кбит/сек, 23.976 кадр/сек, AVC, x264, 2-pass
Аудио1: AC-3, 448 Кбит/сек, 6 канала(ов), 48,0 КГц - Многоголосый закадровый, LostFilmTV
Аудио2: AC-3, 448 Кбит/сек, 6 канала(ов), 48,0 КГц - Двухголосый закадровый, Кубик в Кубе
Аудио3: AC-3, 448 Кбит/сек, 6 канала(ов), 48,0 КГц - Двухголосый закадровый, П.Гланц и И.Королева
Аудио4: AC-3, 448 Кбит/сек, 6 канала(ов), 48,0 КГц - English
Скриншоты & MediaInfo


MediaInfo
Format : Matroska
Format version : Version 2
File size : 2.18 GiB
Duration : 52mn 50s
Overall bit rate : 5 913 Kbps
Movie name : Тихий океан.7серия.Горы Палау.(2010).BDRip.720p.[denis100]
Encoded date : UTC 2013-11-01 07:15:51
Writing application : mkvmerge v5.8.0 ('No Sleep / Pillow') built on Sep 2 2012 15:37:04
Writing library : libebml v1.2.3 + libmatroska v1.3.0

Video
ID : 1
Format : AVC
Format/Info : Advanced Video Codec
Format profile : High@L4.1
Format settings, CABAC : Yes
Format settings, ReFrames : 9 frames
Codec ID : V_MPEG4/ISO/AVC
Duration : 52mn 50s
Bit rate : 4 120 Kbps
Width : 1 280 pixels
Height : 720 pixels
Display aspect ratio : 16:9
Frame rate mode : Constant
Frame rate : 23.976 fps
Color space : YUV
Chroma subsampling : 4:2:0
Bit depth : 8 bits
Scan type : Progressive
Bits/(Pixel*Frame) : 0.186
Stream size : 1.48 GiB (68%)
Title : Тихий океан.7серия.Горы Палау.(2010).BDRip.720p.[denis100]
Writing library : x264 core 138 r2358 9e941d1
Encoding settings : cabac=1 / ref=9 / deblock=1:0:0 / analyse=0x3:0x133 / me=umh / subme=11 / psy=1 / psy_rd=1.00:0.10 / mixed_ref=1 / me_range=32 / chroma_me=1 / trellis=2 / 8x8dct=1 / cqm=0 / deadzone=21,11 /

fast_pskip=0 / chroma_qp_offset=-3 / threads=6 / lookahead_threads=1 / sliced_threads=0 / nr=0 / decimate=0 / interlaced=0 / bluray_compat=0 / constrained_intra=0 / bframes=7 / b_pyramid=2 / b_adapt=2 / b_bias=0 / direct=3 / weightb=1 /

open_gop=0 / weightp=2 / keyint=240 / keyint_min=23 / scenecut=40 / intra_refresh=0 / rc=2pass / mbtree=0 / bitrate=4120 / ratetol=1.0 / qcomp=0.60 / qpmin=0 / qpmax=69 / qpstep=4 / cplxblur=20.0 / qblur=0.5 / ip_ratio=1.40 /

pb_ratio=1.30 / aq=1:0.80
Language : English
Default : Yes
Forced : No

Audio #1
ID : 2
Format : AC-3
Format/Info : Audio Coding 3
Mode extension : CM (complete main)
Format settings, Endianness : Big
Codec ID : A_AC3
Duration : 52mn 50s
Bit rate mode : Constant
Bit rate : 448 Kbps
Channel count : 6 channels
Channel positions : Front: L C R, Side: L R, LFE
Sampling rate : 48.0 KHz
Bit depth : 16 bits
Compression mode : Lossy
Stream size : 169 MiB (8%)
Title : Многоголосый закадровый, LostFilmTV
Language : Russian
Default : No
Forced : No

Audio #2
ID : 3
Format : AC-3
Format/Info : Audio Coding 3
Mode extension : CM (complete main)
Format settings, Endianness : Big
Codec ID : A_AC3
Duration : 52mn 50s
Bit rate mode : Constant
Bit rate : 448 Kbps
Channel count : 6 channels
Channel positions : Front: L C R, Side: L R, LFE
Sampling rate : 48.0 KHz
Bit depth : 16 bits
Compression mode : Lossy
Stream size : 169 MiB (8%)
Title : Двухголосый закадровый, Кубик в Кубе
Language : Russian
Default : No
Forced : No

Audio #3
ID : 4
Format : AC-3
Format/Info : Audio Coding 3
Mode extension : CM (complete main)
Format settings, Endianness : Big
Codec ID : A_AC3
Duration : 52mn 50s
Bit rate mode : Constant
Bit rate : 448 Kbps
Channel count : 6 channels
Channel positions : Front: L C R, Side: L R, LFE
Sampling rate : 48.0 KHz
Bit depth : 16 bits
Compression mode : Lossy
Stream size : 169 MiB (8%)
Title : Двухголосый закадровый, П.Гланц и И.Королева
Language : Russian
Default : No
Forced : No

Audio #4
ID : 5
Format : AC-3
Format/Info : Audio Coding 3
Mode extension : CM (complete main)
Format settings, Endianness : Big
Codec ID : A_AC3
Duration : 52mn 50s
Bit rate mode : Constant
Bit rate : 448 Kbps
Channel count : 6 channels
Channel positions : Front: L C R, Side: L R, LFE
Sampling rate : 48.0 KHz
Bit depth : 16 bits
Compression mode : Lossy
Stream size : 169 MiB (8%)
Title : English
Language : Russian
Default : No
Forced : No

Menu
00:00:00.000 : en:00:00:00.000
00:02:15.509 : en:00:02:15.509
00:05:08.182 : en:00:05:08.182
00:13:08.931 : en:00:13:08.931
00:16:52.595 : en:00:16:52.595
00:26:23.788 : en:00:26:23.788
00:32:39.722 : en:00:32:39.722
00:40:25.630 : en:00:40:25.630
00:48:38.123 : en:00:48:38.123

Описание: В декабре 1943 запрос Бэзилоуна, оставить военные облигации, наконец одобрили, и его назначают в Калифорнийский лагерь для обучения новичков. В лагере он влюбляется в такого же сержанта, Лену Риджи, хотя они оба знают
что ему придется вернуться на фронт. В феврале 1945 его отправляют на захват острова Иво Джима.

Файл
Качество: BDRip 720p (исходник Blu-ray Disc)
Видео: 1280x720, 3 524 Kbps Кбит/сек, 23.976 кадр/сек, AVC, x264, 2-pass
Аудио1: AC-3, 448 Кбит/сек, 6 канала(ов), 48,0 КГц - Многоголосый закадровый, LostFilmTV
Аудио2: AC-3, 448 Кбит/сек, 6 канала(ов), 48,0 КГц - Двухголосый закадровый, Кубик в Кубе
Аудио3: AC-3, 448 Кбит/сек, 6 канала(ов), 48,0 КГц - Двухголосый закадровый, П.Гланц и И.Королева
Аудио4: AC-3, 448 Кбит/сек, 6 канала(ов), 48,0 КГц - English

Скриншоты & MediaInfo


MediaInfo
Format : Matroska
Format version : Version 2
File size : 2.18 GiB
Duration : 58mn 49s
Overall bit rate : 5 317 Kbps
Movie name : Тихий океан.8серия.Иводзима.(2010).BDRip.720p.[denis100]
Encoded date : UTC 2013-11-01 07:19:36
Writing application : mkvmerge v5.8.0 ('No Sleep / Pillow') built on Sep 2 2012 15:37:04
Writing library : libebml v1.2.3 + libmatroska v1.3.0

Video
ID : 1
Format : AVC
Format/Info : Advanced Video Codec
Format profile : High@L4.1
Format settings, CABAC : Yes
Format settings, ReFrames : 9 frames
Codec ID : V_MPEG4/ISO/AVC
Duration : 58mn 49s
Bit rate : 3 524 Kbps
Width : 1 280 pixels
Height : 720 pixels
Display aspect ratio : 16:9
Frame rate mode : Constant
Frame rate : 23.976 fps
Color space : YUV
Chroma subsampling : 4:2:0
Bit depth : 8 bits
Scan type : Progressive
Bits/(Pixel*Frame) : 0.159
Stream size : 1.40 GiB (64%)
Title : Тихий океан.8серия.Иводзима.(2010).BDRip.720p.[denis100]
Writing library : x264 core 138 r2358 9e941d1
Encoding settings : cabac=1 / ref=9 / deblock=1:0:0 / analyse=0x3:0x133 / me=umh / subme=11 / psy=1 / psy_rd=1.00:0.10 / mixed_ref=1 / me_range=32 / chroma_me=1 / trellis=2 / 8x8dct=1 / cqm=0 / deadzone=21,11 /

fast_pskip=0 / chroma_qp_offset=-3 / threads=6 / lookahead_threads=1 / sliced_threads=0 / nr=0 / decimate=0 / interlaced=0 / bluray_compat=0 / constrained_intra=0 / bframes=7 / b_pyramid=2 / b_adapt=2 / b_bias=0 / direct=3 / weightb=1 /

open_gop=0 / weightp=2 / keyint=240 / keyint_min=23 / scenecut=40 / intra_refresh=0 / rc=2pass / mbtree=0 / bitrate=3524 / ratetol=1.0 / qcomp=0.60 / qpmin=0 / qpmax=69 / qpstep=4 / cplxblur=20.0 / qblur=0.5 / ip_ratio=1.40 /

pb_ratio=1.30 / aq=1:0.80
Language : English
Default : Yes
Forced : No

Audio #1
ID : 2
Format : AC-3
Format/Info : Audio Coding 3
Mode extension : CM (complete main)
Format settings, Endianness : Big
Codec ID : A_AC3
Duration : 58mn 49s
Bit rate mode : Constant
Bit rate : 448 Kbps
Channel count : 6 channels
Channel positions : Front: L C R, Side: L R, LFE
Sampling rate : 48.0 KHz
Bit depth : 16 bits
Compression mode : Lossy
Stream size : 188 MiB (8%)
Title : Многоголосый закадровый, LostFilmTV
Language : Russian
Default : No
Forced : No

Audio #2
ID : 3
Format : AC-3
Format/Info : Audio Coding 3
Mode extension : CM (complete main)
Format settings, Endianness : Big
Codec ID : A_AC3
Duration : 58mn 49s
Bit rate mode : Constant
Bit rate : 448 Kbps
Channel count : 6 channels
Channel positions : Front: L C R, Side: L R, LFE
Sampling rate : 48.0 KHz
Bit depth : 16 bits
Compression mode : Lossy
Stream size : 188 MiB (8%)
Title : Двухголосый закадровый, Кубик в Кубе
Language : Russian
Default : No
Forced : No

Audio #3
ID : 4
Format : AC-3
Format/Info : Audio Coding 3
Mode extension : CM (complete main)
Format settings, Endianness : Big
Codec ID : A_AC3
Duration : 58mn 49s
Bit rate mode : Constant
Bit rate : 448 Kbps
Channel count : 6 channels
Channel positions : Front: L C R, Side: L R, LFE
Sampling rate : 48.0 KHz
Bit depth : 16 bits
Compression mode : Lossy
Stream size : 188 MiB (8%)
Title : Двухголосый закадровый, П.Гланц и И.Королева
Language : Russian
Default : No
Forced : No

Audio #4
ID : 5
Format : AC-3
Format/Info : Audio Coding 3
Mode extension : CM (complete main)
Format settings, Endianness : Big
Codec ID : A_AC3
Duration : 58mn 49s
Bit rate mode : Constant
Bit rate : 448 Kbps
Channel count : 6 channels
Channel positions : Front: L C R, Side: L R, LFE
Sampling rate : 48.0 KHz
Bit depth : 16 bits
Compression mode : Lossy
Stream size : 188 MiB (8%)
Title : English
Language : English
Default : No
Forced : No

Menu
00:00:00.000 : en:00:00:00.000
00:02:15.509 : en:00:02:15.509
00:05:08.182 : en:00:05:08.182
00:13:08.931 : en:00:13:08.931
00:16:52.595 : en:00:16:52.595
00:26:23.788 : en:00:26:23.788
00:32:39.722 : en:00:32:39.722
00:40:25.630 : en:00:40:25.630
00:48:38.123 : en:00:48:38.123

Описание: После месячных сражений за Окинаву Следж и остатки 1-ого Подразделения морской пехоты приказывают сменить Армейское подразделение, которое было в намного более худшем положении на острове. Тяжелые условия и проблемы связанные с присутствием мирных граждан, оказывают огромное давление на физическую и психологическую выносливость Следжа и других солдат.

Файл
Качество: BDRip 720p (исходник Blu-ray Disc)
Видео: 1280x720, 3 437 Kbps Кбит/сек, 23.976 кадр/сек, AVC, x264, 2-pass
Аудио1: AC-3, 448 Кбит/сек, 6 канала(ов), 48,0 КГц - Многоголосый закадровый, LostFilmTV
Аудио2: AC-3, 448 Кбит/сек, 6 канала(ов), 48,0 КГц - Двухголосый закадровый, Кубик в Кубе
Аудио3: AC-3, 448 Кбит/сек, 6 канала(ов), 48,0 КГц - Двухголосый закадровый, П.Гланц и И.Королева
Аудио4: AC-3, 448 Кбит/сек, 6 канала(ов), 48,0 КГц - English

Скриншоты & MediaInfo


MediaInfo
Format : Matroska
Format version : Version 2
File size : 2.18 GiB
Duration : 59mn 46s
Overall bit rate : 5 231 Kbps
Movie name : Тихий океан.9серия.Окинава.(2010).BDRip.720p.[denis100]
Encoded date : UTC 2013-11-01 07:24:28
Writing application : mkvmerge v5.8.0 ('No Sleep / Pillow') built on Sep 2 2012 15:37:04
Writing library : libebml v1.2.3 + libmatroska v1.3.0

Video
ID : 1
Format : AVC
Format/Info : Advanced Video Codec
Format profile : High@L4.1
Format settings, CABAC : Yes
Format settings, ReFrames : 9 frames
Codec ID : V_MPEG4/ISO/AVC
Duration : 59mn 46s
Bit rate : 3 437 Kbps
Width : 1 280 pixels
Height : 720 pixels
Display aspect ratio : 16:9
Frame rate mode : Constant
Frame rate : 23.976 fps
Color space : YUV
Chroma subsampling : 4:2:0
Bit depth : 8 bits
Scan type : Progressive
Bits/(Pixel*Frame) : 0.156
Stream size : 1.39 GiB (64%)
Title : Тихий океан.9серия.Окинава.(2010).BDRip.720p.[denis100]
Writing library : x264 core 138 r2358 9e941d1
Encoding settings : cabac=1 / ref=9 / deblock=1:0:0 / analyse=0x3:0x133 / me=umh / subme=11 / psy=1 / psy_rd=1.00:0.10 / mixed_ref=1 / me_range=32 / chroma_me=1 / trellis=2 / 8x8dct=1 / cqm=0 / deadzone=21,11 /

fast_pskip=0 / chroma_qp_offset=-3 / threads=6 / lookahead_threads=1 / sliced_threads=0 / nr=0 / decimate=0 / interlaced=0 / bluray_compat=0 / constrained_intra=0 / bframes=7 / b_pyramid=2 / b_adapt=2 / b_bias=0 / direct=3 / weightb=1 /

open_gop=0 / weightp=2 / keyint=240 / keyint_min=23 / scenecut=40 / intra_refresh=0 / rc=2pass / mbtree=0 / bitrate=3437 / ratetol=1.0 / qcomp=0.60 / qpmin=0 / qpmax=69 / qpstep=4 / cplxblur=20.0 / qblur=0.5 / ip_ratio=1.40 /

pb_ratio=1.30 / aq=1:0.90
Language : English
Default : Yes
Forced : No

Audio #1
ID : 2
Format : AC-3
Format/Info : Audio Coding 3
Mode extension : CM (complete main)
Format settings, Endianness : Big
Codec ID : A_AC3
Duration : 59mn 46s
Bit rate mode : Constant
Bit rate : 448 Kbps
Channel count : 6 channels
Channel positions : Front: L C R, Side: L R, LFE
Sampling rate : 48.0 KHz
Bit depth : 16 bits
Compression mode : Lossy
Stream size : 192 MiB (9%)
Title : Многоголосый закадровый, LostFilmTV
Language : Russian
Default : No
Forced : No

Audio #2
ID : 3
Format : AC-3
Format/Info : Audio Coding 3
Mode extension : CM (complete main)
Format settings, Endianness : Big
Codec ID : A_AC3
Duration : 59mn 46s
Bit rate mode : Constant
Bit rate : 448 Kbps
Channel count : 6 channels
Channel positions : Front: L C R, Side: L R, LFE
Sampling rate : 48.0 KHz
Bit depth : 16 bits
Compression mode : Lossy
Stream size : 192 MiB (9%)
Title : Двухголосый закадровый, Кубик в Кубе
Language : Russian
Default : No
Forced : No

Audio #3
ID : 4
Format : AC-3
Format/Info : Audio Coding 3
Mode extension : CM (complete main)
Format settings, Endianness : Big
Codec ID : A_AC3
Duration : 59mn 46s
Bit rate mode : Constant
Bit rate : 448 Kbps
Channel count : 6 channels
Channel positions : Front: L C R, Side: L R, LFE
Sampling rate : 48.0 KHz
Bit depth : 16 bits
Compression mode : Lossy
Stream size : 192 MiB (9%)
Title : Двухголосый закадровый, П.Гланц и И.Королева
Language : Russian
Default : No
Forced : No

Audio #4
ID : 5
Format : AC-3
Format/Info : Audio Coding 3
Mode extension : CM (complete main)
Format settings, Endianness : Big
Codec ID : A_AC3
Duration : 59mn 46s
Bit rate mode : Constant
Bit rate : 448 Kbps
Channel count : 6 channels
Channel positions : Front: L C R, Side: L R, LFE
Sampling rate : 48.0 KHz
Bit depth : 16 bits
Compression mode : Lossy
Stream size : 192 MiB (9%)
Title : English
Language : English
Default : No
Forced : No

Menu
00:00:00.000 : en:00:00:00.000
00:02:15.509 : en:00:02:15.509
00:05:08.182 : en:00:05:08.182
00:13:08.931 : en:00:13:08.931
00:16:52.595 : en:00:16:52.595
00:26:23.788 : en:00:26:23.788
00:32:39.722 : en:00:32:39.722
00:40:25.630 : en:00:40:25.630
00:48:38.123 : en:00:48:38.123

Описание:После сдачи японцев Лекки, восстановившийся от ранения, покидает госпиталь и возвращается домой, а Следж возвращаются в Алабаму, для встречи с его семьей и Сидом Филлипсом. Лена посещает дом Бэзилоуна и встречаеться с его семьей. Лекки приспосабливается к послевоенной жизни, возобновляя свою старую работу и начиная новые отношения, но для Следжа, совершенно непонимающего, как он пережил войну, оставшись невредимым, восстановление потребует большего количества времени.

Файл
Качество: BDRip 720p (исходник Blu-ray Disc)
Видео: 1280x720, 3 229 Kbps Кбит/сек, 23.976 кадр/сек, AVC, x264, 2-pass
Аудио1: AC-3, 448 Кбит/сек, 6 канала(ов), 48,0 КГц - Многоголосый закадровый, LostFilmTV
Аудио2: AC-3, 448 Кбит/сек, 6 канала(ов), 48,0 КГц - Двухголосый закадровый, Кубик в Кубе
Аудио3: AC-3, 448 Кбит/сек, 6 канала(ов), 48,0 КГц - Двухголосый закадровый, П.Гланц и И.Королева
Аудио4: AC-3, 448 Кбит/сек, 6 канала(ов), 48,0 КГц - English

Скриншоты & MediaInfo


MediaInfo
Format : Matroska
Format version : Version 2
File size : 2.19 GiB
Duration : 1h 2mn
Overall bit rate : 5 023 Kbps
Movie name : Тихий океан.10серия.Возвращение домой.(2010).BDRip.720p.[denis100]
Encoded date : UTC 2013-11-01 07:27:55
Writing application : mkvmerge v5.8.0 ('No Sleep / Pillow') built on Sep 2 2012 15:37:04
Writing library : libebml v1.2.3 + libmatroska v1.3.0

Video
ID : 1
Format : AVC
Format/Info : Advanced Video Codec
Format profile : High@L4.1
Format settings, CABAC : Yes
Format settings, ReFrames : 9 frames
Codec ID : V_MPEG4/ISO/AVC
Duration : 1h 2mn
Bit rate : 3 229 Kbps
Width : 1 280 pixels
Height : 720 pixels
Display aspect ratio : 16:9
Frame rate mode : Constant
Frame rate : 23.976 fps
Color space : YUV
Chroma subsampling : 4:2:0
Bit depth : 8 bits
Scan type : Progressive
Bits/(Pixel*Frame) : 0.146
Stream size : 1.36 GiB (62%)
Title : Тихий океан.10серия.Возвращение домой.(2010).BDRip.720p.[denis100]
Writing library : x264 core 138 r2358 9e941d1
Encoding settings : cabac=1 / ref=9 / deblock=1:0:0 / analyse=0x3:0x133 / me=umh / subme=11 / psy=1 / psy_rd=1.00:0.10 / mixed_ref=1 / me_range=32 / chroma_me=1 / trellis=2 / 8x8dct=1 / cqm=0 / deadzone=21,11 / fast_pskip=0 / chroma_qp_offset=-3 / threads=6 / lookahead_threads=1 / sliced_threads=0 / nr=0 / decimate=0 / interlaced=0 / bluray_compat=0 / constrained_intra=0 / bframes=7 / b_pyramid=2 / b_adapt=2 / b_bias=0 / direct=3 / weightb=1 / open_gop=0 / weightp=2 / keyint=240 / keyint_min=23 / scenecut=40 / intra_refresh=0 / rc=2pass / mbtree=0 / bitrate=3229 / ratetol=1.0 / qcomp=0.60 / qpmin=0 / qpmax=69 / qpstep=4 / cplxblur=20.0 / qblur=0.5 / ip_ratio=1.40 / pb_ratio=1.30 / aq=1:0.90
Language : English
Default : Yes
Forced : No

Audio #1
ID : 2
Format : AC-3
Format/Info : Audio Coding 3
Mode extension : CM (complete main)
Format settings, Endianness : Big
Codec ID : A_AC3
Duration : 1h 2mn
Bit rate mode : Constant
Bit rate : 448 Kbps
Channel count : 6 channels
Channel positions : Front: L C R, Side: L R, LFE
Sampling rate : 48.0 KHz
Bit depth : 16 bits
Compression mode : Lossy
Stream size : 200 MiB (9%)
Title : Многоголосый закадровый, LostFilmTV
Language : Russian
Default : No
Forced : No

Audio #2
ID : 3
Format : AC-3
Format/Info : Audio Coding 3
Mode extension : CM (complete main)
Format settings, Endianness : Big
Codec ID : A_AC3
Duration : 1h 2mn
Bit rate mode : Constant
Bit rate : 448 Kbps
Channel count : 6 channels
Channel positions : Front: L C R, Side: L R, LFE
Sampling rate : 48.0 KHz
Bit depth : 16 bits
Compression mode : Lossy
Stream size : 200 MiB (9%)
Title : Двухголосый закадровый, Кубик в Кубе
Language : Russian
Default : No
Forced : No

Audio #3
ID : 4
Format : AC-3
Format/Info : Audio Coding 3
Mode extension : CM (complete main)
Format settings, Endianness : Big
Codec ID : A_AC3
Duration : 1h 2mn
Bit rate mode : Constant
Bit rate : 448 Kbps
Channel count : 6 channels
Channel positions : Front: L C R, Side: L R, LFE
Sampling rate : 48.0 KHz
Bit depth : 16 bits
Compression mode : Lossy
Stream size : 200 MiB (9%)
Title : Двухголосый закадровый, П.Гланц и И.Королева
Language : Russian
Default : No
Forced : No

Audio #4
ID : 5
Format : AC-3
Format/Info : Audio Coding 3
Mode extension : CM (complete main)
Format settings, Endianness : Big
Codec ID : A_AC3
Duration : 1h 2mn
Bit rate mode : Constant
Bit rate : 448 Kbps
Channel count : 6 channels
Channel positions : Front: L C R, Side: L R, LFE
Sampling rate : 48.0 KHz
Bit depth : 16 bits
Compression mode : Lossy
Stream size : 200 MiB (9%)
Title : English
Language : English
Default : No
Forced : No

Menu
00:00:00.000 : en:00:00:00.000
00:01:13.531 : en:00:01:13.531
00:04:06.245 : en:00:04:06.245
00:09:59.678 : en:00:09:59.678
00:18:45.704 : en:00:18:45.704
00:29:47.156 : en:00:29:47.156
00:39:20.271 : en:00:39:20.271
00:50:16.471 : en:00:50:16.471
00:58:09.943 : en:00:58:09.943


Основой сценария является несколько документальных источников, в частности книга Евгения Следжа «With the Old Breed», мемуары Роберта Лекки «Каска вместо подушки» («Helmet for My Pillow»), а также реальная история морского пехотинца Джона Бэсилона единственного морского пехотинца, заслужившего своим героизмом во время войны и Почётную медаль Конгресса (Medal of Honor), и военно-морской крест (Navy Cross), и «Пурпурное сердце» (Purple Heart) и погибшего в битве при Иводзиме.



Скачать Тихий.океан.(Тихоокеанский.фронт).The.Pacific.(01-10.из.10).(Стивен.Спилберг.Том.Хэнкс.Гари.Гоэцман.и.др).[2010.военный.драма.реальные.события.BDRip].[720p].[MVO.(LostFilm)]+3x[DVO]+[Eng].torrent без регистрации
Золото ЗОЛОТАЯ РАЗДАЧА! СКАЧАННОЕ НЕ ЗАСЧИТЫВАЕТСЯ! Золото
Дата: Зарегистрирован   [ Тип: внутренний ] Как тут cкачать?
MAGNET ссылка
MAGNET ссылка


Скачать .torrent

111 KB

Статус: проверено DHT
Скачан: торрент - 266 раз, раздача полностью - 220 раз
Размер: 21,83 GB
Оценка:  5 (Голосов: 1)
Поблагодарили: 7
Поделиться ссылкой на эту раздачу с друзьями:
В контактеFacebookОдноклассникиTwitterLivejournalМой МирLiveinternet
 

 
Показать сообщения:    


Вы не можете начинать темы
Вы не можете отвечать на сообщения
Вы не можете редактировать свои сообщения
Вы не можете удалять свои сообщения
Вы не можете голосовать в опросах
Вы не можете прикреплять файлы к сообщениям
Вы можете скачивать файлы