Loading...
Error

Скачать Я знаю, что вы сделали прошлым летом / I Know What You Did Last Summer (Джим Гиллеспи) [1997, ужасы, триллер, детектив, BDRip-AVC] [MVO]+[AVO]+[Sub] торрент без регистрации

 
Статистика раздачи
Размер:  3,41 GB   |    Скачан:  111 раз
Сидов:  1  [  0 KB/s  ]  
 
Автор Сообщение

Marsianka

[] 

Информация о фильме
Название: Я знаю, что вы сделали прошлым летом
Оригинальное название: I Know What You Did Last Summer
Год выхода: 1997
Жанр: ужасы, триллер, детектив
Режиссер: Джим Гиллеспи
В ролях: Дженнифер Лав Хьюитт, Сара Мишель Геллар, Райан Филипп, Фредди Принц мл., Бриджит Уилсон, Энн Хеч, Джонни Галэки, Мьюз Уотсон, Стюарт Грир, Дж. Дон Фергюсон, Дебора Хобарт, Мэри МакМиллан, Дэн Олбрайт, Линда Кларк, Дженнифер Блэнд, Уильям Нили, Джонатан Кен, Ричард Дэйл Миллер, Мэри Нева Хафф, Дэвид Ли Хартман, Патти ДАрбанвиль

О фильме:
Компания выпускников весело провела вечер на берегу моря. Возвращаясь на машине домой, они сбивают непонятно откуда взявшегося человека. Решив, что он мертв и не желая лишних неприятностей, они сбрасывают тело в море. А ровно через год получают письмо Кто-то знает их тайну. Кто-то знает, что они натворили прошлым летом!



Страна: США / Columbia Pictures, Mandalay Entertainment, Summer Knowledge LLC
Продолжительность: 01:40:53
Перевод: Профессиональный многоголосый, авторский

Файл
Кодек: x264
Качество: BDRip (AVC)
Видео: MPEG-4 AVC, 2600 Кбит/с, 1024x426, 23.976 кадр/с
Аудио #1: Русский (AC3, 6 ch, 448 Кбит/с) / Профессиональный многоголосый
Аудио #2: Русский (AC3, 6 ch, 448 Кбит/с) / Авторский одноголосый (Гаврилов)
Аудио #3: Русский (AC3, 6 ch, 448 Кбит/с) / Авторский одноголосый (Живов)
Аудио #4: Русский (AC3, 6 ch, 448 Кбит/с) / Авторский одноголосый (Кашкин)
Аудио #5: Английский (AC3, 6 ch, 448 Кбит/с)
Субтитры: Русские, английские
Семпл
Релиз: MediaClub от Odessit

За исходник СПАСИБО HDtracker

Сохраненны оригинальные чаптеры как на Blu-Ray

--------------------------------------------------------------------------------------
x264 [info]: frame I:1279 Avg QP:15.46 size: 76483
x264 [info]: frame P:32716 Avg QP:18.42 size: 25715
x264 [info]: frame B:111132 Avg QP:19.87 size: 9228
--------------------------------------------------------------------------------------
Format : Matroska
Format version : Version 4 / Version 2
File size : 3.41 GiB
Duration : 1h 41mn
Overall bit rate : 4 831 Kbps
Movie name : -=MediaClub - Odessit=-
Encoded date : UTC 2013-11-02 15:49:51
Writing application : mkvmerge v6.2.0 ('Promised Land') built on Apr 28 2013 12:22:01
Writing library : libebml v1.3.0 + libmatroska v1.4.0

Video
ID : 1
Format : AVC
Format/Info : Advanced Video Codec
Format profile : High@L4.1
Format settings, CABAC : Yes
Format settings, ReFrames : 10 frames
Codec ID : V_MPEG4/ISO/AVC
Duration : 1h 41mn
Bit rate : 2 600 Kbps
Width : 1 024 pixels
Height : 426 pixels
Display aspect ratio : 2.40:1
Frame rate : 23.976 fps
Color space : YUV
Chroma subsampling : 4:2:0
Bit depth : 8 bits
Scan type : Progressive
Bits/(Pixel*Frame) : 0.249
Stream size : 1.76 GiB (52%)
Writing library : x264 core 133 r2334 a3ac64b
Encoding settings : cabac=1 / ref=10 / deblock=1:-2:-2 / analyse=0x3:0x133 / me=umh / subme=11 / psy=1 / psy_rd=1.00:0.20 / mixed_ref=1 / me_range=48 / chroma_me=1 / trellis=2 / 8x8dct=1 / cqm=0 / deadzone=21,11 / fast_pskip=0 / chroma_qp_offset=-3 / threads=6 / lookahead_threads=1 / sliced_threads=0 / nr=0 / decimate=0 / interlaced=0 / bluray_compat=0 / constrained_intra=0 / bframes=9 / b_pyramid=2 / b_adapt=2 / b_bias=0 / direct=3 / weightb=1 / open_gop=0 / weightp=2 / keyint=240 / keyint_min=23 / scenecut=40 / intra_refresh=0 / rc=2pass / mbtree=0 / bitrate=2600 / ratetol=1.0 / qcomp=0.60 / qpmin=0 / qpmax=69 / qpstep=4 / cplxblur=20.0 / qblur=0.5 / ip_ratio=1.40 / pb_ratio=1.30 / aq=1:1.00
Language : English

Audio #1
ID : 2
Format : AC-3
Format/Info : Audio Coding 3
Mode extension : CM (complete main)
Codec ID : A_AC3
Duration : 1h 41mn
Bit rate mode : Constant
Bit rate : 448 Kbps
Channel(s) : 6 channels
Channel positions : Front: L C R, Side: L R, LFE
Sampling rate : 48.0 KHz
Bit depth : 16 bits
Compression mode : Lossy
Stream size : 324 MiB (9%)
Title : многоголосый
Language : Russian

Audio #2
ID : 3
Format : AC-3
Format/Info : Audio Coding 3
Mode extension : CM (complete main)
Codec ID : A_AC3
Duration : 1h 41mn
Bit rate mode : Constant
Bit rate : 448 Kbps
Channel(s) : 6 channels
Channel positions : Front: L C R, Side: L R, LFE
Sampling rate : 48.0 KHz
Bit depth : 16 bits
Compression mode : Lossy
Stream size : 324 MiB (9%)
Title : Гаврилов
Language : Russian

Audio #3
ID : 4
Format : AC-3
Format/Info : Audio Coding 3
Mode extension : CM (complete main)
Codec ID : A_AC3
Duration : 1h 41mn
Bit rate mode : Constant
Bit rate : 448 Kbps
Channel(s) : 6 channels
Channel positions : Front: L C R, Side: L R, LFE
Sampling rate : 48.0 KHz
Bit depth : 16 bits
Compression mode : Lossy
Stream size : 324 MiB (9%)
Title : Живов
Language : Russian

Audio #4
ID : 5
Format : AC-3
Format/Info : Audio Coding 3
Mode extension : CM (complete main)
Codec ID : A_AC3
Duration : 1h 41mn
Bit rate mode : Constant
Bit rate : 448 Kbps
Channel(s) : 6 channels
Channel positions : Front: L C R, Side: L R, LFE
Sampling rate : 48.0 KHz
Bit depth : 16 bits
Compression mode : Lossy
Stream size : 324 MiB (9%)
Title : Кашкин
Language : Russian

Audio #5
ID : 6
Format : AC-3
Format/Info : Audio Coding 3
Mode extension : CM (complete main)
Codec ID : A_AC3
Duration : 1h 41mn
Bit rate mode : Constant
Bit rate : 448 Kbps
Channel(s) : 6 channels
Channel positions : Front: L C R, Side: L R, LFE
Sampling rate : 48.0 KHz
Bit depth : 16 bits
Compression mode : Lossy
Stream size : 324 MiB (9%)
Language : English

Text #1
ID : 7
Format : UTF-8
Codec ID : S_TEXT/UTF8
Codec ID/Info : UTF-8 Plain Text
Language : Russian

Text #2
ID : 8
Format : UTF-8
Codec ID : S_TEXT/UTF8
Codec ID/Info : UTF-8 Plain Text
Language : English

Menu
00:00:00.000 : :Chapter 01
00:08:40.561 : :Chapter 02
00:13:02.448 : :Chapter 03
00:20:24.974 : :Chapter 04
00:22:53.580 : :Chapter 05
00:25:24.188 : :Chapter 06
00:37:10.687 : :Chapter 07
00:42:31.549 : :Chapter 08
00:46:43.467 : :Chapter 09
00:53:11.605 : :Chapter 10
01:00:57.487 : :Chapter 11
01:08:02.161 : :Chapter 12
01:12:46.445 : :Chapter 13
01:18:58.734 : :Chapter 14
01:24:47.957 : :Chapter 15
01:31:50.171 : :Chapter 16
Релиз от:



Скачать Я.знаю.что.вы.сделали.прошлым.летом.I.Know.What.You.Did.Last.Summer.(Джим.Гиллеспи).[1997.ужасы.триллер.детектив.BDRip-AVC].[MVO]+[AVO]+[Sub].torrent без регистрации
Золото ЗОЛОТАЯ РАЗДАЧА! СКАЧАННОЕ НЕ ЗАСЧИТЫВАЕТСЯ! Золото
Дата: Зарегистрирован   [ Тип: внутренний ] Как тут cкачать?
MAGNET ссылка
MAGNET ссылка


Скачать .torrent

18 KB

Статус: проверено DHT
Скачан: торрент - 111 раз, раздача полностью - 7 раз
Размер: 3,41 GB
Оценка:  - (Голосов: 0)
Поблагодарили: 1
Поделиться ссылкой на эту раздачу с друзьями:
В контактеFacebookОдноклассникиTwitterLivejournalМой МирLiveinternet
 

 
Показать сообщения:    


Вы не можете начинать темы
Вы не можете отвечать на сообщения
Вы не можете редактировать свои сообщения
Вы не можете удалять свои сообщения
Вы не можете голосовать в опросах
Вы не можете прикреплять файлы к сообщениям
Вы можете скачивать файлы