Loading...
Error

Скачать Грозовой понедельник / Stormy Monday (Майк Фиггис) [1988, драма, мелодрама, криминал, BDRip] 2x[AVO] (А.Гаврилов, А.Алексеев) торрент без регистрации

 
Статистика раздачи
Размер:  1,53 GB   |    Скачан:  103 раза
Сидов:  1  [  0 KB/s  ]  
 
Автор Сообщение

leon030982

[] 

Грозовой понедельник / Stormy Monday



Год выпуска: 1988
Страна: США , Великобритания
Жанр: драма, мелодрама, криминал
Продолжительность: 01:32:48
Перевод #1: Авторский (одноголосый, закадровый) [А. Гаврилов]
Перевод #2: Авторский (одноголосый, закадровый) [А.Алексеев]

Режиссер: Майк Фиггис

В ролях: Мелани Гриффит, Томми Ли Джонс, Стинг, Шон Бин, Джеймс Космо, Марк Лонг, Брайан Льюис, Йинг Тонг Джон, Мик Хамер, Йен Хинчклифф

Сюжет фильма: Действие фильма происходит в Ньюкасле городе, переживающем экономический упадок, где людям отчаянно нужна работа. Американский магнат с темным прошлым по имени Космо решает провести грандиозную операцию по отмывке денег, скупая городскую недвижимость. Финни, владелец процветающего джаз-клуба, отказывается от щедрых предложений американца. Но Космо не привык отступать и намерен добиться своего любой ценой.




Качество видео: BDRip
Видео кодек: XviD
Аудио кодек: AC3
Видео: XviD, 720x384, 24 fps, ~1931 kbps, 0.29 bit/pixel
Аудио #1: 48 kHz, AC3 Dolby Digital, 2 ch, 224.00 kbps
Аудио #2: 48 kHz, AC3 Dolby Digital, 2 ch, 192.00 kbps

Рип от Consul
Видео
Идентификатор : 0
Формат : MPEG-4 Visual
Профиль формата : Advanced Simple@L5
Параметр BVOP формата : 1
Параметр QPel формата : Нет
Параметр GMC формата : Без точки перехода
Параметр матрицы формата : Выборочная
Идентификатор кодека : XVID
Идентификатор кодека/Подсказка : XviD
Продолжительность : 1 ч. 32 м.
Битрейт : 1931 Кбит/сек
Ширина : 720 пикселей
Высота : 384 пикселя
Соотношение сторон : 1,875
Частота кадров : 23,976 кадра/сек
Цветовое пространство : YUV
Субдискретизация насыщенности : 4:2:0
Битовая глубина : 8 бит
Тип развёртки : Прогрессивная
Метод сжатия : С потерями
Бит/(Пиксели*Кадры) : 0.291
Размер потока : 1,25 Гбайт (82%)
Библиотека кодирования : XviD 73

Аудио #1
Идентификатор : 1
Формат : AC-3
Формат/Информация : Audio Coding 3
Расширение режима : CM (complete main)
Идентификатор кодека : 2000
Продолжительность : 1 ч. 32 м.
Вид битрейта : Постоянный
Битрейт : 224 Кбит/сек
Каналы : 2 канала
Расположение каналов : Front: L R
Частота : 48,0 КГц
Битовая глубина : 16 бит
Метод сжатия : С потерями
Размер потока : 149 Мбайт (9%)
Выравнивание : Разделение по промежуткам
Продолжительность промежутка : 42 мс. (1,00 видеокадр)
Заголовок : AVO ( А.Гаврилов )

Аудио #2
Идентификатор : 2
Формат : AC-3
Формат/Информация : Audio Coding 3
Расширение режима : CM (complete main)
Идентификатор кодека : 2000
Продолжительность : 1 ч. 32 м.
Вид битрейта : Постоянный
Битрейт : 192 Кбит/сек
Каналы : 2 канала
Расположение каналов : Front: L R
Частота : 48,0 КГц
Битовая глубина : 16 бит
Метод сжатия : С потерями
Размер потока : 127 Мбайт (8%)
Выравнивание : Разделение по промежуткам
Продолжительность промежутка : 42 мс. (1,00 видеокадр)
Заголовок : AVO ( А.Алексеев )











Скачать Грозовой.понедельник.Stormy.Monday.(Майк.Фиггис).[1988.драма.мелодрама.криминал.BDRip].2x[AVO].(А.Гаврилов.А.Алексеев).torrent без регистрации
Золото ЗОЛОТАЯ РАЗДАЧА! СКАЧАННОЕ НЕ ЗАСЧИТЫВАЕТСЯ! Золото
Дата: Зарегистрирован   [ Тип: внутренний ] Как тут cкачать?
MAGNET ссылка
MAGNET ссылка


Скачать .torrent

16 KB

Статус: проверено DHT
Скачан: торрент - 103 раз, раздача полностью - 4 раз
Размер: 1,53 GB
Оценка:  5 (Голосов: 1)
Поблагодарили: 3
Поделиться ссылкой на эту раздачу с друзьями:
В контактеFacebookОдноклассникиTwitterLivejournalМой МирLiveinternet
 

 
Показать сообщения:    


Вы не можете начинать темы
Вы не можете отвечать на сообщения
Вы не можете редактировать свои сообщения
Вы не можете удалять свои сообщения
Вы не можете голосовать в опросах
Вы не можете прикреплять файлы к сообщениям
Вы можете скачивать файлы