Loading...
Error

Скачать Поездка в Америку / Coming to America (Джон Лэндис) [1988, драма, мелодрама, комедия, ВDRip-AVC] [MVO]+[Sub] торрент без регистрации

 
Статистика раздачи
Размер:  2,18 GB   |    Скачан:  109 раз
Сидов:  1  [  0 KB/s  ]  
 
Автор Сообщение

Marsianka

[] 

Страна: США
Производство: Eddie Murphy Productions, Paramount Pictures
Жанр: драма, мелодрама, комедия
Год выпуска: 1988
Продолжительность: 01:56:47

Перевод: Профессиональный (Многоголосый, закадровый)
Оригинальная аудиодорожка: нет
Cубтитры: английский, шведский

Режиссер: Джон Лэндис / John Landis

В ролях:
Эдди Мёрфи, Арсенио Холл, Джеймс Эрл Джонс, Джон Эймос, Мэдж Синклер, Шэри Хидли, Пол Бейтс, Эрик Ла Салль, Фрэнки Фэйзон, Ванесса Белл Кэллоуэй...

Описание:
Наследный принц африканского государства Замунда Аким (Эдди Мерфи) хочет сам себе найти жену и едет для этого в Америку в компании своего верного друга и слуги Сэмми (Арсенио Холл). В Нью-Йорке принц выбирает самый шикарный по названию, но далеко не самый фешенебельный район «Куинс» (королевы). Поиски невесты заставили принца играть роль обычного работяги-парня и поступить работать в закусочную, в которой ему очень понравилась дочь хозяина. Девушка и не подозревает, кем в действительности является её скромный ухажер-козопас, что она уже потенциальная принцесса!



Исходник: BDRemux 1080p
Тип релиза: BDRip-AVC
Контейнер: MKV

Видео: 1024x576 (16:9), 23.976 fps, H264 ~ 2288 kbps avg, 0.162 bit/pixel
Аудио: 48 kHz, Dolby AC3 5.1, 384 kbps

Раздача от:

Общее
Полное имя : Poezdka.v.Ameriku.1988.BDRip-AVC_[Youtracker]_by_AVP Studio.mkv
Формат : Matroska
Версия формата : Version 4 / Version 2
Размер файла : 2,18 Гбайт
Продолжительность : 1 ч. 56 м.
Общий поток : 2674 Кбит/сек
Название фильма : Poezdka.v.Ameriku.1988.BDRip-AVC_[Youtracker]_by_AVP Studio
Дата кодирования : UTC 2013-11-02 18:35:29
Программа кодирования : mkvmerge v6.5.0 ('Isn't she lovely') built on Oct 20 2013 12:50:05
Библиотека кодирования : libebml v1.3.0 + libmatroska v1.4.1

Видео
Идентификатор : 1
Формат : AVC
Формат/Информация : Advanced Video Codec
Профиль формата : High@L4.1
Параметр CABAC формата : Да
Параметр ReFrames формата : 6 кадров
Идентификатор кодека : V_MPEG4/ISO/AVC
Продолжительность : 1 ч. 56 м.
Битрейт : 2288 Кбит/сек
Ширина : 1024 пикселя
Высота : 576 пикселей
Соотношение сторон : 16:9
Частота кадров : 23,976 кадра/сек
Цветовое пространство : YUV
Субдискретизация насыщенности : 4:2:0
Битовая глубина : 8 бит
Тип развёртки : Прогрессивная
Бит/(Пиксели*Кадры) : 0.162
Размер потока : 1,82 Гбайт (84%)
Заголовок : Источник BDRip 1080p
Библиотека кодирования : x264 core 138 r2356 a1d3d17
Настройки программы : cabac=1 / ref=6 / deblock=1:-3:-2 / analyse=0x3:0x113 / me=umh / subme=10 / psy=1 / psy_rd=1.00:0.05 / mixed_ref=1 / me_range=32 / chroma_me=1 / trellis=2 / 8x8dct=1 / cqm=0 / deadzone=21,11 / fast_pskip=0 / chroma_qp_offset=-3 / threads=3 / lookahead_threads=1 / sliced_threads=0 / nr=0 / decimate=0 / interlaced=0 / bluray_compat=0 / constrained_intra=0 / bframes=8 / b_pyramid=2 / b_adapt=2 / b_bias=0 / direct=3 / weightb=1 / open_gop=0 / weightp=2 / keyint=240 / keyint_min=24 / scenecut=40 / intra_refresh=0 / rc_lookahead=40 / rc=2pass / mbtree=1 / bitrate=2288 / ratetol=1.0 / qcomp=0.60 / qpmin=0 / qpmax=69 / qpstep=4 / cplxblur=20.0 / qblur=0.5 / ip_ratio=1.40 / aq=1:1.00
Язык : English
Default : Да
Forced : Нет

Аудио
Идентификатор : 2
Формат : AC-3
Формат/Информация : Audio Coding 3
Расширение режима : CM (complete main)
Идентификатор кодека : A_AC3
Продолжительность : 1 ч. 56 м.
Вид битрейта : Постоянный
Битрейт : 384 Кбит/сек
Каналы : 6 каналов
Расположение каналов : Front: L C R, Side: L R, LFE
Частота : 48,0 КГц
Битовая глубина : 16 бит
Метод сжатия : С потерями
Размер потока : 321 Мбайт (14%)
Заголовок : Источник BDRip 1080p Dolby Digital 5,1
Язык : Russian
Default : Да
Forced : Нет

Текст #1
Идентификатор : 3
Формат : UTF-8
Идентификатор кодека : S_TEXT/UTF8
Идентификатор кодека/Информация : UTF-8 Plain Text
Заголовок : Источник BDRip 1080p
Язык : English
Default : Нет
Forced : Нет

Текст #2
Идентификатор : 4
Формат : UTF-8
Идентификатор кодека : S_TEXT/UTF8
Идентификатор кодека/Информация : UTF-8 Plain Text
Заголовок : Источник BDRip 1080p
Язык : Swedish
Default : Нет
Forced : Нет

Основу для сценария фильма написал сатирик Арт Бухвальд. Однако, на киностудии «Paramount Pictures» отвергли его идею, заявив, что она малоинтересна. В результате, фильм сняли без ведома автора. И удивлённый сатирик увидел реализацию своего замысла только в кинотеатре. Из-за этого Бухвальд в 1990 году подал в суд на «Paramount Pictures». Процесс он выиграл: студию обязали выплатить ему 900 тысяч долларов. С тех пор киностудии взяли за правило включать в свои контракты оговорку, что оригинальные идеи сторонних авторов оплате не подлежат. Эта ссылка вошла в историю авторского права Америки как «закон Бухвальда».
В фильме есть эпизод, когда главные герои проходят рядом с двумя нищими. Принц отдаёт последние деньги этим нищим, которые оказываются братьями Рэндольфом и Мортимером Дюк, которых разорил герой Эдди Мерфи в фильме «Поменяться местами».



Скачать Поездка.в.Америку.Coming.to.America.(Джон.Лэндис).[1988.драма.мелодрама.комедия.ВDRip-AVC].[MVO]+[Sub].torrent без регистрации
Золото ЗОЛОТАЯ РАЗДАЧА! СКАЧАННОЕ НЕ ЗАСЧИТЫВАЕТСЯ! Золото
Дата: Зарегистрирован   [ Тип: внутренний ] Как тут cкачать?
MAGNET ссылка
MAGNET ссылка


Скачать .torrent

12 KB

Статус: проверено DHT
Скачан: торрент - 109 раз, раздача полностью - 8 раз
Размер: 2,18 GB
Оценка:  5 (Голосов: 1)
Поблагодарили: 2
Поделиться ссылкой на эту раздачу с друзьями:
В контактеFacebookОдноклассникиTwitterLivejournalМой МирLiveinternet
 

 
Показать сообщения:    


Вы не можете начинать темы
Вы не можете отвечать на сообщения
Вы не можете редактировать свои сообщения
Вы не можете удалять свои сообщения
Вы не можете голосовать в опросах
Вы не можете прикреплять файлы к сообщениям
Вы можете скачивать файлы