Loading...
Error

Скачать Черный Петр / Cern­ Petr (Милош Форман) [1964, драма, DVDRip-AVC] [MVO]+[Sub] торрент без регистрации

 
Статистика раздачи
Размер:  1,32 GB   |    Скачан:  98 раз
Сидов:  1  [  0 KB/s  ]  
 
Автор Сообщение

Marsianka

[] 

Информация о фильме
Название: Черный Петр
Оригинальное название: Cern­ Petr
Год выхода: 1964
Жанр: драма
Режиссер: Милош Форман / Milos Forman
В ролях: Ладислав Яким, Павла Мартинкова, Ян Вострчил, Владимир Пухольт, Павел Седлачек, Зденек Кулганек, Франтишек Косина, Josef Koza, Божена Матушкова, Антонин Покорны

О фильме:
Киноповесть о молодом человеке, который делает первые шаги в самостоятельной жизни и смотрит на окружающую его реальность несколько по-другому нежели его отец.


Страна: Чехословакия
Студия: Filmov™ studio Barrandov
Продолжительность: 01:25:19
Перевод: Профессиональный (многоголосый закадровый) R5 Кармен Видео

Файл
Кодек: h.264
Качество: DVDRip-AVC
Видео: 688x560 (1.295) @ 726x560 (анаморф), 25.000 fps, AVC, ~1832 Kbps, 0.190 bits/pixel
Звук:
Чешский, 48.0 KHz, AC3, 2 ch, 192 Kbps (двойное моно)
Русский, 48.0 KHz, AC3, 2 ch, 192 Kbps (двойное моно)
Субтитры: Чешские,SRT (UTF-8)
Общее
Уникальный идентификатор : 194945799286540586887817384984988114476 (0x92A931FB1B803A66BBC2702B4CB05E2C)
Полное имя : D:FilmsCherniy_Petr.1964.DVDRip-AVC.mkv
Формат : Matroska
Версия формата : Version 4 / Version 2
Размер файла : 1,32 Гбайт
Продолжительность : 1 ч. 25 м.
Общий поток : 2218 Кбит/сек
Дата кодирования : UTC 2013-11-02 20:00:20
Программа кодирования : mkvmerge v6.5.0 ('Isn't she lovely') built on Oct 20 2013 12:50:05
Библиотека кодирования : libebml v1.3.0 + libmatroska v1.4.1

Видео
Идентификатор : 1
Формат : AVC
Формат/Информация : Advanced Video Codec
Профиль формата : High@L4.1
Параметр CABAC формата : Да
Параметр ReFrames формата : 16 кадров
Идентификатор кодека : V_MPEG4/ISO/AVC
Продолжительность : 1 ч. 25 м.
Битрейт : 1832 Кбит/сек
Ширина : 688 пикселей
Высота : 560 пикселей
Соотношение сторон : 1,295
Соотношение сторон в оригинале : 1,296
Режим частоты кадров : Постоянный
Частота кадров : 25,000 кадров/сек
Цветовое пространство : YUV
Субдискретизация насыщенности : 4:2:0
Битовая глубина : 8 бит
Тип развёртки : Прогрессивная
Бит/(Пиксели*Кадры) : 0.190
Размер потока : 1,07 Гбайт (81%)
Библиотека кодирования : x264 core 133 r2334 a3ac64b
Настройки программы : cabac=1 / ref=16 / deblock=1:0:0 / analyse=0x3:0x133 / me=umh / subme=10 / psy=1 / psy_rd=1.05:0.10 / mixed_ref=1 / me_range=32 / chroma_me=1 / trellis=2 / 8x8dct=1 / cqm=0 / deadzone=21,11 / fast_pskip=0 / chroma_qp_offset=-3 / threads=8 / lookahead_threads=1 / sliced_threads=0 / nr=0 / decimate=0 / interlaced=0 / bluray_compat=0 / constrained_intra=0 / bframes=8 / b_pyramid=2 / b_adapt=2 / b_bias=0 / direct=3 / weightb=1 / open_gop=0 / weightp=2 / keyint=250 / keyint_min=25 / scenecut=40 / intra_refresh=0 / rc_lookahead=60 / rc=2pass / mbtree=0 / bitrate=1832 / ratetol=1.0 / qcomp=0.60 / qpmin=0 / qpmax=60 / qpstep=4 / cplxblur=20.0 / qblur=0.5 / vbv_maxrate=50000 / vbv_bufsize=62500 / nal_hrd=none / ip_ratio=1.40 / pb_ratio=1.30 / aq=1:1.00
Default : Нет
Forced : Нет
Коэффициенты матрицы : BT.601

Аудио #1
Идентификатор : 2
Формат : AC-3
Формат/Информация : Audio Coding 3
Расширение режима : CM (complete main)
Параметр Endianness формата : Big
Идентификатор кодека : A_AC3
Продолжительность : 1 ч. 25 м.
Вид битрейта : Постоянный
Битрейт : 192 Кбит/сек
Каналы : 2 канала
Расположение каналов : Front: L R
Частота : 48,0 КГц
Битовая глубина : 16 бит
Метод сжатия : С потерями
Размер потока : 117 Мбайт (9%)
Язык : Czech
Default : Нет
Forced : Нет

Аудио #2
Идентификатор : 3
Формат : AC-3
Формат/Информация : Audio Coding 3
Расширение режима : CM (complete main)
Параметр Endianness формата : Big
Идентификатор кодека : A_AC3
Продолжительность : 1 ч. 25 м.
Вид битрейта : Постоянный
Битрейт : 192 Кбит/сек
Каналы : 2 канала
Расположение каналов : Front: L R
Частота : 48,0 КГц
Битовая глубина : 16 бит
Метод сжатия : С потерями
Размер потока : 117 Мбайт (9%)
Язык : Russian
Default : Да
Forced : Нет

Текст
Идентификатор : 4
Формат : UTF-8
Идентификатор кодека : S_TEXT/UTF8
Идентификатор кодека/Информация : UTF-8 Plain Text
Язык : Czech
Default : Нет
Forced : Нет

Меню
00:00:00.000 : en:Chapter 01
00:10:40.000 : en:Chapter 02
00:13:35.560 : en:Chapter 03
00:20:55.240 : en:Chapter 04
00:30:10.440 : en:Chapter 05
00:42:15.480 : en:Chapter 06
00:48:37.400 : en:Chapter 07
00:54:48.520 : en:Chapter 08
01:02:51.520 : en:Chapter 09
01:08:14.240 : en:Chapter 10
01:12:56.920 : en:Chapter 11
01:19:49.520 : en:Chapter 12
frame I:661 Avg QP:15.03 size: 39832
frame P:29409 Avg QP:17.76 size: 18021
frame B:97913 Avg QP:19.79 size: 6292
Исходник R2 DVD9. Картинка без реставрации, но это лучшее издание и, соответственно, заметно лучше R5.
Релиз от: Temperest



Скачать Черный.Петр.Cern­.Petr.(Милош.Форман).[1964.драма.DVDRip-AVC].[MVO]+[Sub].torrent без регистрации
Золото ЗОЛОТАЯ РАЗДАЧА! СКАЧАННОЕ НЕ ЗАСЧИТЫВАЕТСЯ! Золото
Дата: Зарегистрирован   [ Тип: внутренний ] Как тут cкачать?
MAGNET ссылка
MAGNET ссылка


Скачать .torrent

14 KB

Статус: проверено DHT
Скачан: торрент - 98 раз, раздача полностью - 22 раз
Размер: 1,32 GB
Оценка:  - (Голосов: 0)
Поблагодарили: 1
Поделиться ссылкой на эту раздачу с друзьями:
В контактеFacebookОдноклассникиTwitterLivejournalМой МирLiveinternet
 

 
Показать сообщения:    


Вы не можете начинать темы
Вы не можете отвечать на сообщения
Вы не можете редактировать свои сообщения
Вы не можете удалять свои сообщения
Вы не можете голосовать в опросах
Вы не можете прикреплять файлы к сообщениям
Вы можете скачивать файлы