Loading...
Error

Скачать День отца / День отцов / Fathers' Day (Айвен Райтман) [1997, комедия, мелодрама, DVDRip] [Dub (Варус Видео)]+[MVO (ТВ3)] торрент без регистрации

 
Статистика раздачи
Размер:  1,46 GB   |    Скачан:  94 раза
Сидов:  1  [  0 KB/s  ]  
 
Автор Сообщение

МихаНЕзатор

[] 

День отца / День отцов / Fathers' Day


Страна: США
Жанр: комедия, мелодрама
Год выпуска: 1997
Продолжительность: 01:35:11
Перевод 1: Профессиональный (дублированный) Варус Видео
Перевод 2: Профессиональный (многоголосый закадровый) ТВ3
Cубтитры: нет
Оригинальная аудиодорожка: нет
Режиссер: Айвен Райтман / Ivan Reitman

В ролях: Робин Уильямс, Билли Кристал, Настасья Кински, Брюс Гринвуд, Джулия Луис-Дрейфус, Луис Ломбарди, Хэйли Джонсон, Патти Д'Арбанвилль, Джаред Харрис, Чарли Хофхаймер, Чарльз Рокет и др., а также камео Мэла Гибсона

Описание: Ремейк французского фильма "Папаши / Les compères" 1983 года с Пьером Ришаром и Жераром Депардье.
Поссорившись со своим отчимом, а заодно и с законом, семнадцатилетний Скотт убегает из дома. Когда отчим отказывается искать его, мать Скотта, миссис Эндрюс, решает прибегнуть к хитрости. Она отправляется к своему бывшему любовнику, Джеку Лоуренсу, ныне преуспевающему адвокату, и сообщает ему о том, что Скотт - его ребенок. Видя, что Джек в нерешительности и не торопится на поиски нерадивого отпрыска, миссис Эндрюс разыскивает еще одного старого приятеля - писателя-драматурга Дэйла Патли - и говорит ему то же самое. В итоге оба новоиспеченных папаши отправляются на поиски "общего" сына...

Качество видео:
Формат видео: AVI
Видео: MPEG4, XviD, 720x304 (2.35), 25.000 fps, 1 794 Kbps (0.328 bit/pixel)
Аудио 1: AC-3, 48.0 KHz, 2 ch, 192 Kbps, CBR - дубляж
Аудио 2: AC-3, 48.0 KHz, 2 ch, 192 Kbps, CBR - многоголосый
Общее
Полное имя : K:\День отца.avi
Формат : AVI
Формат/Информация : Audio Video Interleave
Размер файла : 1,46 Гбайт
Продолжительность : 1 ч. 35 м.
Общий поток : 2192 Кбит/сек
Название фильма : День отца / День отцов / Fathers' Day (1997)
Режиссёр : miha2154
Программа кодирования : VirtualDubMod 1.5.10.2 (build 2540/release)
Библиотека кодирования : VirtualDubMod build 2540/release
Правообладатель : специально для BitTorrent трекер RuTracker.org (ex torrents.ru)
Видео
Идентификатор : 0
Формат : MPEG-4 Visual
Профиль формата : Advanced Simple@L5
Параметр BVOP формата : 2
Параметр QPel формата : Нет
Параметр GMC формата : Без точки перехода
Параметр матрицы формата : Default (MPEG)
Идентификатор кодека : XVID
Идентификатор кодека/Подсказка : XviD
Продолжительность : 1 ч. 35 м.
Битрейт : 1794 Кбит/сек
Ширина : 720 пикселей
Высота : 304 пикселя
Соотношение сторон : 2,35:1
Частота кадров : 25,000 кадров/сек
Цветовое пространство : YUV
Субдискретизация насыщенности : 4:2:0
Битовая глубина : 8 бит
Тип развёртки : Прогрессивная
Метод сжатия : С потерями
Бит/(Пиксели*Кадры) : 0.328
Размер потока : 1,19 Гбайт (82%)
Библиотека кодирования : XviD 1.1.0 (UTC 2005-11-22)
Аудио #1
Идентификатор : 1
Формат : AC-3
Формат/Информация : Audio Coding 3
Расширение режима : CM (complete main)
Параметр Endianness формата : Big
Идентификатор кодека : 2000
Продолжительность : 1 ч. 35 м.
Вид битрейта : Постоянный
Битрейт : 192 Кбит/сек
Каналы : 2 канала
Расположение каналов : Front: L R
Частота : 48,0 КГц
Битовая глубина : 16 бит
Метод сжатия : С потерями
Размер потока : 131 Мбайт (9%)
Выравнивание : Разделение по промежуткам
Продолжительность промежутка : 40 мс. (1,00 видеокадр)
Время предзагрузки промежутка : 500 мс.
Заголовок : Профессиональный (полное дублирование) Варус Видео
Аудио #2
Идентификатор : 2
Формат : AC-3
Формат/Информация : Audio Coding 3
Расширение режима : CM (complete main)
Параметр Endianness формата : Big
Идентификатор кодека : 2000
Продолжительность : 1 ч. 35 м.
Вид битрейта : Постоянный
Битрейт : 192 Кбит/сек
Каналы : 2 канала
Расположение каналов : Front: L R
Частота : 48,0 КГц
Битовая глубина : 16 бит
Метод сжатия : С потерями
Размер потока : 131 Мбайт (9%)
Выравнивание : Разделение по промежуткам
Продолжительность промежутка : 40 мс. (1,00 видеокадр)
Время предзагрузки промежутка : 500 мс.
Заголовок : Профессиональный (многоголосый закадровый) ТВ3



Скачать День.отца.День.отцов.Fathers'.Day.(Айвен.Райтман).[1997.комедия.мелодрама.DVDRip].[Dub.(Варус.Видео)]+[MVO.(ТВ3)].torrent без регистрации
Золото ЗОЛОТАЯ РАЗДАЧА! СКАЧАННОЕ НЕ ЗАСЧИТЫВАЕТСЯ! Золото
Дата: Зарегистрирован   [ Тип: внутренний ] Как тут cкачать?
MAGNET ссылка
MAGNET ссылка


Скачать .torrent

15 KB

Статус: проверено DHT
Скачан: торрент - 94 раз, раздача полностью - 4 раз
Размер: 1,46 GB
Оценка:  - (Голосов: 0)
Поблагодарили: 0
Поделиться ссылкой на эту раздачу с друзьями:
В контактеFacebookОдноклассникиTwitterLivejournalМой МирLiveinternet
 

 
Показать сообщения:    


Вы не можете начинать темы
Вы не можете отвечать на сообщения
Вы не можете редактировать свои сообщения
Вы не можете удалять свои сообщения
Вы не можете голосовать в опросах
Вы не можете прикреплять файлы к сообщениям
Вы можете скачивать файлы