Loading...
Error

Скачать Великий матч / La Gran Final (Жерардо Оливарес) [2006, комедия, DVDRip-AVC] [VO]+[Sub] торрент без регистрации

 
Статистика раздачи
Размер:  1,84 GB   |    Скачан:  108 раз
Сидов:  1  [  0 KB/s  ]  
 
Автор Сообщение

Marsianka

[] 

Информация о фильме
Название: Великий матч
Оригинальное название: La Gran Final
Год выхода: 2006
Жанр: комедия
Режиссер: Жерардо Оливарес
В ролях: Атибу Абубакар, Ахмед Алансар, Тано Алансар, Абу Алданиш, Кеншлег.

О фильме:
Великий Матч это комедия, которая состоит из трёх остроумных историй. Каждая происходит в отдельном регионе нигерийской пустыне, алтайских горах и джунглях амазонки. Истории рассказывают о людях, отрезанных от цивилизации. Они живут простой жизнью занимаются охотой на диких зверей, добывают уголь, торгуют солью Все они живут за сотни километров до тех мест, где есть электричество, и можно посмотреть телевизор. Но все они готовы преодолеть это расстояние, ради того, чтобы посмотреть большой футбольный матч игру между командами Бразилии и Германии за Кубок Мира.



Страна: Испания, Германия
Студия: Greenlight Media AG, TelevisiЈn EspaЎola (TVE), Wanda Films
Продолжительность: 01:27:53
Перевод: Профессиональный (одноголосый) R5

Файл
Кодек: h.264
Качество: DVDRip-AVC
Видео: 720x576 (16:9) @ 1024x576 (анаморф), 25.000 fps, AVC, ~2418 Kbps, 0.233 bits/pixel
Мультиязычный, 48.0 KHz, AC3, 2 ch, 384 Kbps
Русский, 48.0 KHz, AC3, 2 ch, 192 Kbps
Субтитры:
Испанские, VobSub
Английские, VobSub
Общее
Уникальный идентификатор : 176715715871169004925128992139056023035 (0x84F235796C2C5F42A869D92D731485FB)
Полное имя : D:FilmsVelikiy_match.2006.DVDRip-AVC.mkv
Формат : Matroska
Версия формата : Version 4 / Version 2
Размер файла : 1,84 Гбайт
Продолжительность : 1 ч. 27 м.
Общий поток : 2998 Кбит/сек
Дата кодирования : UTC 2013-11-03 04:35:51
Программа кодирования : mkvmerge v6.5.0 ('Isn't she lovely') built on Oct 20 2013 12:50:05
Библиотека кодирования : libebml v1.3.0 + libmatroska v1.4.1

Видео
Идентификатор : 1
Формат : AVC
Формат/Информация : Advanced Video Codec
Профиль формата : High@L4.1
Параметр CABAC формата : Да
Параметр ReFrames формата : 16 кадров
Идентификатор кодека : V_MPEG4/ISO/AVC
Продолжительность : 1 ч. 27 м.
Битрейт : 2418 Кбит/сек
Ширина : 720 пикселей
Высота : 576 пикселей
Соотношение сторон : 16:9
Режим частоты кадров : Постоянный
Частота кадров : 25,000 кадров/сек
Стандарт вещания : PAL
Цветовое пространство : YUV
Субдискретизация насыщенности : 4:2:0
Битовая глубина : 8 бит
Тип развёртки : Прогрессивная
Бит/(Пиксели*Кадры) : 0.233
Размер потока : 1,45 Гбайт (79%)
Библиотека кодирования : x264 core 133 r2334 a3ac64b
Настройки программы : cabac=1 / ref=16 / deblock=1:0:0 / analyse=0x3:0x133 / me=umh / subme=10 / psy=1 / psy_rd=1.05:0.10 / mixed_ref=1 / me_range=32 / chroma_me=1 / trellis=2 / 8x8dct=1 / cqm=0 / deadzone=21,11 / fast_pskip=0 / chroma_qp_offset=-3 / threads=8 / lookahead_threads=2 / sliced_threads=0 / nr=0 / decimate=0 / interlaced=0 / bluray_compat=0 / constrained_intra=0 / bframes=10 / b_pyramid=2 / b_adapt=2 / b_bias=0 / direct=3 / weightb=1 / open_gop=0 / weightp=2 / keyint=250 / keyint_min=25 / scenecut=40 / intra_refresh=0 / rc_lookahead=60 / rc=2pass / mbtree=0 / bitrate=2418 / ratetol=1.0 / qcomp=0.60 / qpmin=0 / qpmax=60 / qpstep=4 / cplxblur=20.0 / qblur=0.5 / vbv_maxrate=50000 / vbv_bufsize=62500 / nal_hrd=none / ip_ratio=1.40 / pb_ratio=1.30 / aq=1:1.00
Default : Нет
Forced : Нет
Коэффициенты матрицы : BT.601

Аудио #1
Идентификатор : 2
Формат : AC-3
Формат/Информация : Audio Coding 3
Расширение режима : CM (complete main)
Параметр Endianness формата : Big
Идентификатор кодека : A_AC3
Продолжительность : 1 ч. 27 м.
Вид битрейта : Постоянный
Битрейт : 384 Кбит/сек
Каналы : 2 канала
Расположение каналов : Front: L R
Частота : 48,0 КГц
Битовая глубина : 16 бит
Метод сжатия : С потерями
Размер потока : 241 Мбайт (13%)
Default : Нет
Forced : Нет

Аудио #2
Идентификатор : 3
Формат : AC-3
Формат/Информация : Audio Coding 3
Расширение режима : CM (complete main)
Параметр Endianness формата : Big
Идентификатор кодека : A_AC3
Продолжительность : 1 ч. 27 м.
Вид битрейта : Постоянный
Битрейт : 192 Кбит/сек
Каналы : 2 канала
Расположение каналов : Front: L R
Частота : 48,0 КГц
Битовая глубина : 16 бит
Метод сжатия : С потерями
Размер потока : 121 Мбайт (6%)
Язык : Russian
Default : Да
Forced : Нет

Текст #1
Идентификатор : 4
Формат : VobSub
Режим смешивания : zlib
Идентификатор кодека : S_VOBSUB
Идентификатор кодека/Информация : The same subtitle format used on DVDs
Язык : Spanish
Default : Нет
Forced : Нет

Текст #2
Идентификатор : 5
Формат : VobSub
Режим смешивания : zlib
Идентификатор кодека : S_VOBSUB
Идентификатор кодека/Информация : The same subtitle format used on DVDs
Язык : English
Default : Нет
Forced : Нет

Меню
00:00:00.000 : en:Chapter 01
00:10:15.360 : en:Chapter 02
00:18:20.520 : en:Chapter 03
00:26:07.200 : en:Chapter 04
00:38:50.520 : en:Chapter 05
00:51:05.400 : en:Chapter 06
01:04:24.240 : en:Chapter 07
01:15:04.440 : en:Chapter 08
Исходник видео - R2 Релиз от: Temperest



Скачать Великий.матч.La.Gran.Final.(Жерардо.Оливарес).[2006.комедия.DVDRip-AVC].[VO]+[Sub].torrent без регистрации
Золото ЗОЛОТАЯ РАЗДАЧА! СКАЧАННОЕ НЕ ЗАСЧИТЫВАЕТСЯ! Золото
Дата: Зарегистрирован   [ Тип: внутренний ] Как тут cкачать?
MAGNET ссылка
MAGNET ссылка


Скачать .torrent

19 KB

Статус: проверено DHT
Скачан: торрент - 108 раз, раздача полностью - 0 раз
Размер: 1,84 GB
Оценка:  - (Голосов: 0)
Поблагодарили: 0
Поделиться ссылкой на эту раздачу с друзьями:
В контактеFacebookОдноклассникиTwitterLivejournalМой МирLiveinternet
 

 
Показать сообщения:    


Вы не можете начинать темы
Вы не можете отвечать на сообщения
Вы не можете редактировать свои сообщения
Вы не можете удалять свои сообщения
Вы не можете голосовать в опросах
Вы не можете прикреплять файлы к сообщениям
Вы можете скачивать файлы