Loading...
Error

Скачать Ультрафиолет / Ultraviolet (Курт Уиммер) [2006, фантастика, боевик, HDRip] [2xDVO]+[AVO] [UNRATED] торрент без регистрации

 
Статистика раздачи
Размер:  915 MB   |    Скачан:  115 раз
Сидов:  1  [  0 KB/s  ]  
 
Автор Сообщение

Dinozavr

[] 

Информация о фильме
Название: Ультрафиолет
Оригинальное название: Ultraviolet
Год выхода: 2006
Жанр: фантастика, боевик
Режиссер: Курт Уиммер
В ролях: Милла Йовович, Камерон Брайт, Ник Чинланд, Себастьен Эндриё, Ида Мартин, Уильям Фихтнер, Дэвид Колье, Киран ОРорк, Диггер Мещ, Райан Мартин

О фильме:
Конец XXI века. На Земле бушует ожесточенная война между обычными людьми и новым подвидом людей-вампиров. Непобедимый вирус, детище коварных спецслужб, способен в одночасье наделить любого человека невероятной силой, фантастической ловкостью и несравненным интеллектом. Однако за невероятные способности подопытные расплачиваются собственной жизнью. Жертвы глобальной эпидемии обречены на уничтожение, но бесстрашные повстанцы намерены бороться до конца. Среди них отважная Вайолет. У нее есть всего 36 часов на то, чтобы выполнить свою последнюю миссию. Одна неуязвимая красавица против армии спецагентов в мире, стоящем на краю бездны решающий элемент в смертельном противостоянии людей и суперменов!



Официальный сайт [United States]

Страна: США
Студия: Screen Gems, Ultravi Productions
Продолжительность: 01:34:28
Перевод:
  • Профессиональный (двухголосый закадровый) | Киномания
  • Профессиональный (двухголосый закадровый) | Tycoon | Отдельно
  • Авторский | Немахов Юрий | Отдельно


Файл
Кодек: XviD
Качество: HDRip | Source: BDRip 1080p
Видео: 656x352 (1.85:1), 962 kbps, 23.976 fps
Звук:
  • MP3, 128 kbps, 2/0 (L,R) ch, 48.0 kHz | Киномания
  • MP3, 128 kbps, 2/0 (L,R) ch, 48.0 kHz | Tycoon | Отдельно
  • MP3, 128 kbps, 2/0 (L,R) ch, 48.0 kHz | Немахов Юрий | Отдельно

Субтитры: нет

Автор рипа: TaniaVGTU
General
Complete name : Ultraviolet (Unrated, 2006) - HDRip by TaniaVGTU.avi
Format : AVI
Format/Info : Audio Video Interleave
File size : 743 MiB
Duration : 1h 34mn
Overall bit rate : 1 099 Kbps
Writing application : VirtualDubMod 1.5.10.2 (build 2540/release)
Writing library : VirtualDubMod build 2540/release

Video
ID : 0
Format : MPEG-4 Visual
Format profile : Advanced Simple@L5
Format settings, BVOP : 1
Format settings, QPel : No
Format settings, GMC : No warppoints
Format settings, Matrix : Default (H.263)
Codec ID : XVID
Codec ID/Hint : XviD
Duration : 1h 34mn
Bit rate : 962 Kbps
Width : 656 pixels
Height : 352 pixels
Display aspect ratio : 1.85:1
Frame rate : 23.976 fps
Color space : YUV
Chroma subsampling : 4:2:0
Bit depth : 8 bits
Scan type : Progressive
Compression mode : Lossy
Bits/(Pixel*Frame) : 0.174
Stream size : 650 MiB (88%)
Writing library : XviD 1.2.1 (UTC 2008-12-04)

Audio
ID : 1
Format : MPEG Audio
Format version : Version 1
Format profile : Layer 3
Codec ID : 55
Codec ID/Hint : MP3
Duration : 1h 34mn
Bit rate mode : Constant
Bit rate : 128 Kbps
Channel(s) : 2 channels
Sampling rate : 48.0 KHz
Compression mode : Lossy
Stream size : 86.5 MiB (12%)
Alignment : Aligned on interleaves
Interleave, duration : 42 ms (1.00 video frame)
Interleave, preload duration : 504 ms
Writing library : LAME3.98r
Encoding settings : -m s -V 4 -q 2 -lowpass 17 -b 128



Скачать Ультрафиолет.Ultraviolet.(Курт.Уиммер).[2006.фантастика.боевик.HDRip].[2xDVO]+[AVO].[UNRATED].torrent без регистрации
Золото ЗОЛОТАЯ РАЗДАЧА! СКАЧАННОЕ НЕ ЗАСЧИТЫВАЕТСЯ! Золото
Дата: Зарегистрирован   [ Тип: внутренний ] Как тут cкачать?
MAGNET ссылка
MAGNET ссылка


Скачать .torrent

19 KB

Статус: проверено DHT
Скачан: торрент - 115 раз, раздача полностью - 17 раз
Размер: 915 MB
Оценка:  - (Голосов: 0)
Поблагодарили: 1
Поделиться ссылкой на эту раздачу с друзьями:
В контактеFacebookОдноклассникиTwitterLivejournalМой МирLiveinternet
 

 
Показать сообщения:    


Вы не можете начинать темы
Вы не можете отвечать на сообщения
Вы не можете редактировать свои сообщения
Вы не можете удалять свои сообщения
Вы не можете голосовать в опросах
Вы не можете прикреплять файлы к сообщениям
Вы можете скачивать файлы