Loading...
Error

Скачать Элементарно / Elementary (сезон 02) (Джон Дэвид Коулз, Майкл Куэста, Род Холкомб) [2013, драма, криминал, детектив, WEB-DLRip-AVC] 2x[MVO (LostFilm, NewStudio)] торрент без регистрации

 
Статистика раздачи
Размер:  27,01 GB   |    Скачан:  2028 раз
Сидов:  1  [  0 KB/s  ]  
 
Автор Сообщение

МихаНЕзатор

[] 

Информация о фильме

Название: Элементарно
Оригинальное название: Elementary
Год выпуска: 2013
Жанр: драма, криминал, детектив
Выпущено: США, CBS Television Studios, Hill of Beans Productions, Timberman-Beverly Productions
Режиссер: Джон Дэвид Коулз, Майкл Куэста, Род Холкомб

В ролях: Джонни Ли Миллер, Люси Лью, Эйдан Куинн, Джон Майкл Хилл, Даллас Робертс, Мэнни Перез, Джонатан Уолкер, Кристен Буш, Крэйг Уолкер, Майкл Натансон, Шерри Х. Арелл, Уорд Хортон, Дженнифер Феррин, Билл Хек, Кэйси Семашко, Роза Арредондо, Рей Лукас, Кен Маркс, Аса Сомерс, Пол Майкл Вэлли, Янси Ариас, Кейтлинн Бэйли, Эндрю Чемберлен, Майкл Кантримэн, Эрин Дилли

О фильме: Новый сериал от канала CBS - это криминально-детективная драма "Элементарно". Новая интерпретация классического произведения Артура Конана Дойла о Шерлоке Холмсе. Но сюжет сериала будет развиваться не по классическому сценарию, главный герой поменяет не только прописку, он переедет из Лондона в Нью-Йорк, но и эпоху, сюжет будет разворачиваться в наше время. Также зрителей ждет еще один сюрприз, теперь у Шерлока будет не помощник в лице Доктора Ватсона а помощница, роль которой досталось обворожительной Люси Лью. «Элементарно» - современная криминальная драма о дуэте детектива Шерлока Холмса (Джонни Ли Миллер) и доктора Джоан Ватсон (Люси Лю), который решает самые запутанные дела в полицейском департаменте Нью-Йорка.



Файл

Качество: WEB-DLRip (AVC)
Видео: MPEG-4 AVC, ~ 2700 Кбит/с, 1024x576, 23.976 кадр/с
Аудио: Русский, английский (АС3, 6 ch, 384 Кбит/с)
Размер: 7.1 ГБ
Продолжительность: 6 x ~ 00:43:00
Перевод: Профессиональный многоголосый закадровый
Субтитры: Английские

Аудио 1: 48.0 KHz, 6 ch, 384 Kbps / LostFilm /
Аудио 2: 48.0 KHz, 6 ch, 384 Kbps / NewStudio /
Аудио 3: 48.0 KHz, 6 ch, 384 Kbps / Оригинал /

Релиз от: Rip by:

АНОНСЫ ПОПУЛЯРНЫХ РАЗДАЧ


12.06.2014 г. торент обновлён, добавлена 23-24 серия!

01. Девятый шаг / Step Nine
02. Икс равно... / Solve for "X"
03. Все мы / We Are Everyone
04. Отравленная ручка / Poison Pen
05. Дела давно минувших дней / Ancient History
06. Неестественный союз / An Unnatural Arrangement
07. Маркиза / The Marchioness
08. Кровь - не вода / Blood Is Thicker
09. Под угрозой / On the Line
10. Колебания / Tremors
11. Внутреннее расследование / Internal Audit
12. Исчадие ада / The Diabolical Kind
13. Семейные тайны / All in the Family
14. Обреченный таксон / Dead Clade Walking
15. Труп де балет / Corpse De Ballet
16. Идеальное решение / The One Percent Solution
17. Уши в подарок / Ears to You
18. Ищейка раковых клеток / The Hound of the Cancer Cells
19. Челюсти Аарона Колвилла / The Many Mouths of Aaron Colville
20. В пустоте / No Lack of Void
21. Человек с рассеченной губой / The Man with the Twisted Lip
22. Да наступит тьма / Paint in Black
23. Та самая женщина / The Woman
24. Кое-что о героине / Heroine

Общее
Уникальный идентификатор : 178638371738348122982072922547207927209 (0x86647FBA300244819B37413E3849F5A9)
Полное имя : C:ЗагрузкиElementary.s02.2013..ExKinoRayElementary.s02e05.2013.x264.BDRip.(AVC).ExKinoRay.mkv
Формат : Matroska
Версия формата : Version 2
Размер файла : 1,17 Гбайт
Продолжительность : 43 м.
Общий поток : 3874 Кбит/сек
Название фильма : Элементарно.2-й сезон.5-я серия.Rip by: ollan
Дата кодирования : UTC 2013-11-03 12:08:16
Программа кодирования : mkvmerge v5.6.0 ('Kenya Kane') built on May 27 2012 16:44:04
Библиотека кодирования : libebml v1.2.3 + libmatroska v1.3.0

Видео
Идентификатор : 1
Формат : AVC
Формат/Информация : Advanced Video Codec
Профиль формата : High@L4.1
Параметр CABAC формата : Да
Параметр ReFrames формата : 9 кадров
Идентификатор кодека : V_MPEG4/ISO/AVC
Продолжительность : 43 м.
Битрейт : 2720 Кбит/сек
Ширина : 1024 пикселя
Высота : 576 пикселей
Соотношение сторон : 16:9
Режим частоты кадров : Постоянный
Частота кадров : 23,976 кадра/сек
Цветовое пространство : YUV
Субдискретизация насыщенности : 4:2:0
Битовая глубина : 8 бит
Тип развёртки : Прогрессивная
Бит/(Пиксели*Кадры) : 0.192
Размер потока : 818 Мбайт (68%)
Заголовок : Элементарно.2-й сезон.5-я серия.Rip by: ollan
Библиотека кодирования : x264 core 125 r2200 999b753
Настройки программы : cabac=1 / ref=9 / deblock=1:-3:-3 / analyse=0x3:0x133 / me=umh / subme=11 / psy=1 / psy_rd=1.00:0.10 / mixed_ref=1 / me_range=32 / chroma_me=1 / trellis=2 / 8x8dct=1 / cqm=0 / deadzone=21,11 / fast_pskip=0 / chroma_qp_offset=-3 / threads=12 / lookahead_threads=2 / sliced_threads=0 / nr=0 / decimate=0 / interlaced=0 / bluray_compat=0 / constrained_intra=0 / bframes=11 / b_pyramid=2 / b_adapt=2 / b_bias=0 / direct=3 / weightb=1 / open_gop=0 / weightp=2 / keyint=240 / keyint_min=23 / scenecut=40 / intra_refresh=0 / rc_lookahead=40 / rc=2pass / mbtree=1 / bitrate=2720 / ratetol=1.0 / qcomp=0.60 / qpmin=0 / qpmax=69 / qpstep=4 / cplxblur=20.0 / qblur=0.5 / vbv_maxrate=5000 / vbv_bufsize=62500 / nal_hrd=none / ip_ratio=1.40 / aq=1:1.00
Язык : English
Default : Да
Forced : Нет

Аудио #1
Идентификатор : 2
Формат : AC-3
Формат/Информация : Audio Coding 3
Расширение режима : CM (complete main)
Параметр Endianness формата : Big
Идентификатор кодека : A_AC3
Продолжительность : 43 м.
Вид битрейта : Постоянный
Битрейт : 384 Кбит/сек
Каналы : 6 каналов
Расположение каналов : Front: L C R, Side: L R, LFE
Частота : 48,0 КГц
Битовая глубина : 16 бит
Метод сжатия : С потерями
Размер потока : 119 Мбайт (10%)
Заголовок : Профессиональный многоголосый (LostFilm)
Язык : Russian
Default : Да
Forced : Да

Аудио #2
Идентификатор : 3
Формат : AC-3
Формат/Информация : Audio Coding 3
Расширение режима : CM (complete main)
Параметр Endianness формата : Big
Идентификатор кодека : A_AC3
Продолжительность : 43 м.
Вид битрейта : Постоянный
Битрейт : 384 Кбит/сек
Каналы : 6 каналов
Расположение каналов : Front: L C R, Side: L R, LFE
Частота : 48,0 КГц
Битовая глубина : 16 бит
Метод сжатия : С потерями
Размер потока : 119 Мбайт (10%)
Заголовок : Профессиональный многоголосый (NewStudio)
Язык : Russian
Default : Нет
Forced : Нет

Аудио #3
Идентификатор : 4
Формат : AC-3
Формат/Информация : Audio Coding 3
Расширение режима : CM (complete main)
Параметр Endianness формата : Big
Идентификатор кодека : A_AC3
Продолжительность : 43 м.
Вид битрейта : Постоянный
Битрейт : 384 Кбит/сек
Каналы : 6 каналов
Расположение каналов : Front: L C R, Side: L R, LFE
Частота : 48,0 КГц
Битовая глубина : 16 бит
Метод сжатия : С потерями
Размер потока : 119 Мбайт (10%)
Язык : English
Default : Нет
Forced : Нет

Текст
Идентификатор : 5
Формат : UTF-8
Идентификатор кодека : S_TEXT/UTF8
Идентификатор кодека/Информация : UTF-8 Plain Text
Язык : English
Default : Нет
Forced : Нет



Скачать Элементарно.Elementary.(сезон.02).(Джон.Дэвид.Коулз.Майкл.Куэста.Род.Холкомб).[2013.драма.криминал.детектив.WEB-DLRip-AVC].2x[MVO.(LostFilm.NewStudio)].torrent без регистрации
Золото ЗОЛОТАЯ РАЗДАЧА! СКАЧАННОЕ НЕ ЗАСЧИТЫВАЕТСЯ! Золото
Дата: Зарегистрирован   [ Тип: внутренний ] Как тут cкачать?
MAGNET ссылка
MAGNET ссылка


Скачать .torrent

70 KB

Статус: проверено DHT
Скачан: торрент - 2028 раз, раздача полностью - 17 раз
Размер: 27,01 GB
Оценка:  4,5 (Голосов: 2)
Поблагодарили: 6
Поделиться ссылкой на эту раздачу с друзьями:
В контактеFacebookОдноклассникиTwitterLivejournalМой МирLiveinternet
 

 

Sergei2381

[] 

А продолжение - то будет, а ? Заранее спасибо.
 

Sergei2381

[] 

Спасибо огромное, давно искал в таком хорошем качестве.
 

Sergei2381

[] 

А продолжение когда будет ? Заранее спасибо.
 

Sergei2381

[] 

А продолжение - то будет, а ? Заранее спасибо.
 

МихаНЕзатор

[] 

Раздача обновлена
 
Показать сообщения:    


Вы не можете начинать темы
Вы не можете отвечать на сообщения
Вы не можете редактировать свои сообщения
Вы не можете удалять свои сообщения
Вы не можете голосовать в опросах
Вы не можете прикреплять файлы к сообщениям
Вы можете скачивать файлы