Loading...
Error

Скачать Ниагара / Niagara (Генри Хэтэуэй) [1953, фильм-нуар, триллер, HDRip] [MVO] торрент без регистрации

 
Статистика раздачи
Размер:  1,46 GB   |    Скачан:  124 раза
Сидов:  1  [  0 KB/s  ]  
 
Автор Сообщение

Marsianka

[] 

Ниагара
Niagara

Год выпуска: 1953
Страна: США
Жанр: фильм-нуар, триллер
Продолжительность: 01:28:52
Перевод: Профессиональный (многоголосый закадровый) 20 Century Fox
Русские субтитры: нет
Режиссер: Генри Хэтэуэй / Henry Hathaway

В ролях: Мэрилин Монро, Джозеф Коттен, Джин Питерс, Макс Шоуолтер, Денис ОДи, Ричард Аллан, Дон Уилсон, Лёрин Таттл, Расселл Коллинз, Уилл Райт

Описание: Молодожены Полли и Рэй Катлеры приезжают в коттедж возле водопада и знакомятся с еще одной супружеской парой, Джорджем и Роуз Лумисами.

Роуз с самого начала всем доверительно сообщает, что ее муж значительно старше ее, что его мучает депрессия и его только что выпустили из психиатрической лечебницы.

Позже Полли видит, как Роуз целуется с молодым человеком, и узнает, что парочка собирается убить Джорджа

Автор рипа: Leo.pard
Исходник:
Kачество: HDRip
Формат: AVI
Видео: XviD, 720x528 (4:3), 2148 Kbps, 23.976 fps
Аудио: AC3, 192 Kbps, 48 KHz, 2 channels

Сэмпл

General
Complete name : D:Niagara.1953.HDRip.avi
Format : AVI
Format/Info : Audio Video Interleave
File size : 1.46 GiB
Duration : 1h 28mn
Overall bit rate : 2 350 Kbps
Writing application : VirtualDubMod 1.5.10.3 | www.virtualdub-fr.org || (build 2550/release)
Writing library : VirtualDubMod build 2550/release

Video
ID : 0
Format : MPEG-4 Visual
Format profile : Advanced Simple@L5
Format settings, BVOP : 1
Format settings, QPel : No
Format settings, GMC : No warppoints
Format settings, Matrix : Custom
Codec ID : XVID
Codec ID/Hint : XviD
Duration : 1h 28mn
Bit rate : 2 148 Kbps
Width : 720 pixels
Height : 528 pixels
Display aspect ratio : 4:3
Frame rate : 23.976 fps
Color space : YUV
Chroma subsampling : 4:2:0
Bit depth : 8 bits
Scan type : Progressive
Compression mode : Lossy
Bits/(Pixel*Frame) : 0.236
Stream size : 1.33 GiB (91%)
Writing library : XviD 73

Audio
ID : 1
Format : AC-3
Format/Info : Audio Coding 3
Mode extension : CM (complete main)
Codec ID : 2000
Duration : 1h 28mn
Bit rate mode : Constant
Bit rate : 192 Kbps
Channel(s) : 2 channels
Channel positions : Front: L R
Sampling rate : 48.0 KHz
Bit depth : 16 bits
Compression mode : Lossy
Stream size : 122 MiB (8%)
Alignment : Split accross interleaves
Interleave, duration : 42 ms (1.00 video frame)
Interleave, preload duration : 500 ms



Скачать Ниагара.Niagara.(Генри.Хэтэуэй).[1953.фильм-нуар.триллер.HDRip].[MVO].torrent без регистрации
Золото ЗОЛОТАЯ РАЗДАЧА! СКАЧАННОЕ НЕ ЗАСЧИТЫВАЕТСЯ! Золото
Дата: Зарегистрирован   [ Тип: внутренний ] Как тут cкачать?
MAGNET ссылка
MAGNET ссылка


Скачать .torrent

15 KB

Статус: проверено DHT
Скачан: торрент - 124 раз, раздача полностью - 26 раз
Размер: 1,46 GB
Оценка:  5 (Голосов: 1)
Поблагодарили: 1
Поделиться ссылкой на эту раздачу с друзьями:
В контактеFacebookОдноклассникиTwitterLivejournalМой МирLiveinternet
 

 

ЛАВ76

[] 

супер! спасибо! поддержите раздачу.
 
Показать сообщения:    


Вы не можете начинать темы
Вы не можете отвечать на сообщения
Вы не можете редактировать свои сообщения
Вы не можете удалять свои сообщения
Вы не можете голосовать в опросах
Вы не можете прикреплять файлы к сообщениям
Вы можете скачивать файлы