Loading...
Error

Скачать Месть нерожденному / p leinterieur (Александр Бустилло, Жюльен Мори) [2007, ужасы, триллер, HDRip] [MVO] торрент без регистрации

 
Статистика раздачи
Размер:  743 MB   |    Скачан:  109 раз

Полного источника не было: 24 минуты

 
Автор Сообщение

Marsianka

[] 

Информация о фильме
Название: Месть нерожденному
Оригинальное название: p l'int™rieur
Год выхода: 2007
Жанр: ужасы, триллер
Режиссер: Александр Бустилло / Alexandre Bustillo, Жюльен Мори / Julien Maury
В ролях: Беатрис Даль, Элиссон Парадис, Натали Пассел, Доминик Фрот, Жан Таборин, Клод Люле, Эммануэль Гуэз

О фильме:
Став виновницей автомобильной аварии, Сара потеряла мужа. Теперь вся ее жизнь посвящена ребенку, которого она скоро должна родить. Однако, каждый раз засыпая, женщина погружается в кошмар, который в скором времени станет для нее реальностью, но гораздо более страшной



Страна: Франция
Студия: La Fabrique de Films, BR Films
Продолжительность: 01:19:15
Перевод: Профессиональный (многоголосый закадровый)

Файл
Кодек: XviD / MP3
Качество: HDRip
Видео: XviD, 608x320 (1.90:1), 25 fps, ~1179 kbps, 0.242 bit/pixel
Звук: MP3, 48 kHz, 2 ch, ~128 kbps
General
Complete name : F:videol'interieur HDRip.avi
Format : AVI
Format/Info : Audio Video Interleave
File size : 743 MiB
Duration : 1h 18mn
Overall bit rate : 1 316 Kbps
Writing application : VirtualDubMod 1.5.10.2 (build 2540/release)
Writing library : VirtualDubMod build 2540/release

Video
ID : 0
Format : MPEG-4 Visual
Format profile : Advanced Simple@L5
Format settings, BVOP : Yes
Format settings, QPel : No
Format settings, GMC : No warppoints
Format settings, Matrix : Default (MPEG)
Codec ID : XVID
Codec ID/Hint : XviD
Duration : 1h 18mn
Bit rate : 1 179 Kbps
Width : 608 pixels
Height : 320 pixels
Display aspect ratio : 1.900
Frame rate : 25.000 fps
Color space : YUV
Chroma subsampling : 4:2:0
Bit depth : 8 bits
Scan type : Progressive
Bits/(Pixel*Frame) : 0.242
Stream size : 665 MiB (90%)
Writing library : XviD 1.2.1 (UTC 2008-12-04)

Audio
ID : 1
Format : MPEG Audio
Format version : Version 1
Format profile : Layer 3
Codec ID : 55
Codec ID/Hint : MP3
Duration : 1h 18mn
Bit rate mode : Constant
Bit rate : 128 Kbps
Channel(s) : 2 channels
Sampling rate : 48.0 KHz
Stream size : 72.1 MiB (10%)
Alignment : Aligned on interleaves
Interleave, duration : 40 ms (1.00 video frame)
Interleave, preload duration : 504 ms
Writing library : LAME3.98r
Encoding settings : -m s -V 4 -q 2 -lowpass 17 -b 128



Скачать Месть.нерожденному.p.leinterieur.(Александр.Бустилло.Жюльен.Мори).[2007.ужасы.триллер.HDRip].[MVO].torrent без регистрации
Золото ЗОЛОТАЯ РАЗДАЧА! СКАЧАННОЕ НЕ ЗАСЧИТЫВАЕТСЯ! Золото
Дата: Зарегистрирован   [ Тип: внутренний ] Как тут cкачать?
MAGNET ссылка
MAGNET ссылка


Скачать .torrent

15 KB

Статус: проверено DHT
Скачан: торрент - 109 раз, раздача полностью - 8 раз
Размер: 743 MB
Оценка:  - (Голосов: 0)
Поблагодарили: 1
Поделиться ссылкой на эту раздачу с друзьями:
В контактеFacebookОдноклассникиTwitterLivejournalМой МирLiveinternet
 

 
Показать сообщения:    


Вы не можете начинать темы
Вы не можете отвечать на сообщения
Вы не можете редактировать свои сообщения
Вы не можете удалять свои сообщения
Вы не можете голосовать в опросах
Вы не можете прикреплять файлы к сообщениям
Вы можете скачивать файлы