Loading...
Error

Скачать Встреча двух сердец / Какими мы были / The Way We Were (Сидни Поллак) [1973, драма, мелодрама, BDRip-AVC] [MVO]x2+[Оригинал]+[Sub] торрент без регистрации

 
Статистика раздачи
Размер:  2,1 GB   |    Скачан:  126 раз

Полного источника не было: 19 минут

 
Автор Сообщение

Marsianka

[] 

Страна: США
Жанр: драма, мелодрама
Год выпуска: 1973
Продолжительность: 01:58:16
Перевод: Профессиональный (многоголосый, закадровый)[1 канал] + Профессиональный (многоголосый, закадровый)[НТВ+] + Оригинальный
Субтитры: английские, английские[SDH]
Режиссер: Сидни Поллак / Sydney Pollack
В ролях: Барбра Стрейзанд (Katie Morosky), Роберт Редфорд (Hubbell Gardner), Брэдфорд Диллман (J.J.), Лоис Чайлз (Carol Ann), Патрик ОНил (George Bissinger), Вивека Линдфорс (Paula Reisner), Эллин Энн МакЛери (Rhea Edwards), Мюррэй Хэмилтон (Brooks Carpenter), Херб Эдельман (Bill Verso), Диана Юинг (Vicki Bissinger), Сэлли Кёркленд (Pony Dunbar), Марсия Мэй Джонс (Peggy Vanderbilt)
Описание: Юная радикалка Кэти мечтает стать писательницей. Но день и ночь она озабочена несправедливостью этого мира. Кэти всё время отдаёт митингам и демонстрациям, что вызывает горячую поддержку одних её друзей и постоянные насмешки со стороны других. Но совершенно неожиданно для себя оригиналка Кэти понимает, что влюблена в первого красавца школы Хаббла. Она некрасива и чувствует себя несчастной. Но через годы, в 1945-м, они встречаются, и между ними вспыхивает любовь. Более непохожих людей представить себе невозможно. Расставание неизбежно. Но пока они вместе, их счастье бесконечно.


MPAA: PG - Рекомендуется присутствие родителей
Семпл
Качество: BDRip
Контейнер: MKV

Видео: AVC, 1024x426 (2.40:1), 1705 kbps, 23.976 fps, 0.163 bpp
Аудио 1: русский / AC3 / 2.0 / 48 kHz / 192 kbps
Аудио 2: русский / AC3 / 2.0 / 48 kHz / 192 kbps
Аудио 3: английский / AC3 / 5.1 / 48 kHz / 448 kbps
Навигация по главам: есть


---------------------------------------------------------

x264 [info]: frame I:1360 Avg QP:19.10 size: 55839
x264 [info]: frame P:71941 Avg QP:21.98 size: 13974
x264 [info]: frame B:96828 Avg QP:23.15 size: 4454

---------------------------------------------------------
Format : Matroska
Format version : Version 2
File size : 2.10 GiB
Duration : 1h 58mn
Overall bit rate : 2 539 Kbps
Movie name : = Встреча двух сердец / Какими мы были / The Way We Were BDRip by SC Kosmos =
Encoded date : UTC 2013-10-31 15:34:55
Writing application : mkvmerge v5.3.0 ('I could have danced') built on Feb 9 2012 10:38:07
Writing library : libebml v1.2.3 + libmatroska v1.3.0

Video
ID : 1
Format : AVC
Format/Info : Advanced Video Codec
Format profile : High@L4.1
Format settings, CABAC : Yes
Format settings, ReFrames : 12 frames
Codec ID : V_MPEG4/ISO/AVC
Duration : 1h 58mn
Bit rate : 1 705 Kbps
Width : 1 024 pixels
Height : 426 pixels
Display aspect ratio : 2.40:1
Frame rate : 23.976 fps
Color space : YUV
Chroma subsampling : 4:2:0
Bit depth : 8 bits
Scan type : Progressive
Bits/(Pixel*Frame) : 0.163
Stream size : 1.37 GiB (65%)
Title : Встреча двух сердец / Какими мы были / The Way We Were BDRip by SC Kosmos
Writing library : x264 core 138 r2358 9e941d1
Encoding settings : cabac=1 / ref=12 / deblock=1:-2:-2 / analyse=0x3:0x113 / me=umh / subme=11 / psy=1 / psy_rd=1.00:0.00 / mixed_ref=1 / me_range=48 / chroma_me=1 / trellis=2 / 8x8dct=1 / cqm=0 / deadzone=21,11 / fast_pskip=0 / chroma_qp_offset=-2 / threads=12 / lookahead_threads=1 / sliced_threads=0 / nr=0 / decimate=1 / interlaced=0 / bluray_compat=0 / constrained_intra=0 / bframes=10 / b_pyramid=2 / b_adapt=1 / b_bias=0 / direct=1 / weightb=1 / open_gop=0 / weightp=2 / keyint=240 / keyint_min=23 / scenecut=40 / intra_refresh=0 / rc_lookahead=40 / rc=2pass / mbtree=0 / bitrate=1705 / ratetol=1.0 / qcomp=0.60 / qpmin=0 / qpmax=69 / qpstep=4 / cplxblur=20.0 / qblur=0.5 / vbv_maxrate=50000 / vbv_bufsize=50000 / nal_hrd=none / ip_ratio=1.40 / pb_ratio=1.30 / aq=1:1.00
Language : English
Default : Yes
Forced : No

Audio #1
ID : 2
Format : AC-3
Format/Info : Audio Coding 3
Mode extension : CM (complete main)
Codec ID : A_AC3
Duration : 1h 58mn
Bit rate mode : Constant
Bit rate : 192 Kbps
Channel(s) : 2 channels
Channel positions : Front: L R
Sampling rate : 48.0 KHz
Bit depth : 16 bits
Compression mode : Lossy
Stream size : 162 MiB (8%)
Title : MVO [1 канал]
Language : Russian
Default : Yes
Forced : No

Audio #2
ID : 3
Format : AC-3
Format/Info : Audio Coding 3
Mode extension : CM (complete main)
Codec ID : A_AC3
Duration : 1h 58mn
Bit rate mode : Constant
Bit rate : 192 Kbps
Channel(s) : 2 channels
Channel positions : Front: L R
Sampling rate : 48.0 KHz
Bit depth : 16 bits
Compression mode : Lossy
Stream size : 162 MiB (8%)
Title : MVO [НТВ+]
Language : Russian
Default : No
Forced : No

Audio #3
ID : 4
Format : AC-3
Format/Info : Audio Coding 3
Mode extension : CM (complete main)
Codec ID : A_AC3
Duration : 1h 58mn
Bit rate mode : Constant
Bit rate : 448 Kbps
Channel(s) : 6 channels
Channel positions : Front: L C R, Side: L R, LFE
Sampling rate : 48.0 KHz
Bit depth : 16 bits
Compression mode : Lossy
Stream size : 379 MiB (18%)
Language : English
Default : No
Forced : No

Text #1
ID : 5
Format : UTF-8
Codec ID : S_TEXT/UTF8
Codec ID/Info : UTF-8 Plain Text
Language : English
Default : Yes
Forced : No

Text #2
ID : 6
Format : UTF-8
Codec ID : S_TEXT/UTF8
Codec ID/Info : UTF-8 Plain Text
Title : [SDH]
Language : English
Default : No
Forced : No

Menu
00:00:00.000 : en:00:00:00.000
00:09:20.351 : en:00:09:20.351
00:16:30.281 : en:00:16:30.281
00:24:19.458 : en:00:24:19.458
00:29:48.954 : en:00:29:48.954
00:37:26.911 : en:00:37:26.911
00:44:11.566 : en:00:44:11.566
00:49:10.990 : en:00:49:10.990
00:54:53.290 : en:00:54:53.290
01:05:14.786 : en:01:05:14.786
01:13:32.325 : en:01:13:32.325
01:22:05.295 : en:01:22:05.295
01:30:47.817 : en:01:30:47.817
01:40:12.256 : en:01:40:12.256
01:45:36.705 : en:01:45:36.705
01:50:09.228 : en:01:50:09.228


За русские дорожки - Большое СПАСИБО nnlabetik



Скачать Встреча.двух.сердец.Какими.мы.были.The.Way.We.Were.(Сидни.Поллак).[1973.драма.мелодрама.BDRip-AVC].[MVO]x2+[Оригинал]+[Sub].torrent без регистрации
Золото ЗОЛОТАЯ РАЗДАЧА! СКАЧАННОЕ НЕ ЗАСЧИТЫВАЕТСЯ! Золото
Дата: Зарегистрирован   [ Тип: внутренний ] Как тут cкачать?
MAGNET ссылка
MAGNET ссылка


Скачать .torrent

11 KB

Статус: проверено DHT
Скачан: торрент - 126 раз, раздача полностью - 41 раз
Размер: 2,1 GB
Оценка:  - (Голосов: 0)
Поблагодарили: 1
Поделиться ссылкой на эту раздачу с друзьями:
В контактеFacebookОдноклассникиTwitterLivejournalМой МирLiveinternet
 

 
Показать сообщения:    


Вы не можете начинать темы
Вы не можете отвечать на сообщения
Вы не можете редактировать свои сообщения
Вы не можете удалять свои сообщения
Вы не можете голосовать в опросах
Вы не можете прикреплять файлы к сообщениям
Вы можете скачивать файлы