Loading...
Error

Скачать Гран при / Большой приз / Grand Prix (Джон Франкенхаймер) [1966, драма, спорт, BDRip] [AVC] [DVO]+[Sub] торрент без регистрации

 
Статистика раздачи
Размер:  4,34 GB   |    Скачан:  108 раз
Сидов:  1  [  0 KB/s  ]  
 
Автор Сообщение

Marsianka

[] 

Информация о фильме
Название: Гран при / Большой приз
Оригинальное название: Grand Prix
Год выхода: 1966
Жанр: драма, спорт
Режиссер: Джон Франкенхаймер
В ролях: Джеймс Гарнер, Ева Мари Сэйнт, Ив Монтан, Тосиро Мифунэ, Брайан Бедфорд, Джессика Уолтер, Антонио Сабато, Франсуаза Арди, Адольфо Чели, Клод Дофен, Энцо Фьермонте, Женевьев Паж, Джек Уотсон, Дональд ОБрайэн, Жан Мико, Альбер Реми, Рэйчел Кемпсон, Ральф Майкл, Алан Фордни, Энтони Марш, Фил Хилл, Грэхэм Хилл

О фильме:
Личная жизнь и любовь четверых профессиональных автогонщиков, сыгранных Монтаном, Гарнером, Сабато и Бедфордом, перемежаются впечатляюще снятыми автогонками. Герои картины, рискуя жизнью, сражаются за победу в ряде важных европейских соревнований серии «Формула 1», включая Гран При Монако в Монте Карло.
Данный релиз является кинотеатральной версией и начинается 4-хминутной музыкальной увертюрой и в середине фильма прерывается на 2-хминутный антракт
Оскар, 1967 год
Победитель (3):
Лучший звук
Лучший монтаж
Лучшие звуковые эффекты


Золотой глобус, 1967 год
Номинации (2):
Самый многообещающий новичок среди мужчин (Антонио Сабато)
Самый многообещающий новичок среди женщин (Джессика Уолтер)
В фильме используются и кадры реальных гонок «Формулы-1» сезона 1966 года, некоторые гонщики играли самих себя, а другие послужили прототипами героев фильма.
За исходник СПАСИБО HDClub
Огромная благодарность Media-Art-Club за созданный постер к раздаче!
Полное имя : G:Готово!!!Gran.pri.1966.x264.BDRip.AVC.RUS.ENG-MediaClub.mkv
Формат : Matroska
Версия формата : Version 2
Размер файла : 4,34 Гбайт
Продолжительность : 2 ч. 55 м.
Общий поток : 3534 Кбит/сек
Название фильма : Gran pri (1966) BDRip AVC=MediaClub=-[Викс]-
Дата кодирования : UTC 2013-11-05 19:23:50
Программа кодирования : mkvmerge v5.8.0 ('No Sleep / Pillow') built on Sep 2 2012 15:37:04
Библиотека кодирования : libebml v1.2.3 + libmatroska v1.3.0

Видео
Идентификатор : 1
Формат : AVC
Формат/Информация : Advanced Video Codec
Профиль формата : High@L4.1
Параметр CABAC формата : Да
Параметр ReFrames формата : 8 кадров
Идентификатор кодека : V_MPEG4/ISO/AVC
Продолжительность : 2 ч. 55 м.
Битрейт : 2700 Кбит/сек
Ширина : 1024 пикселя
Высота : 464 пикселя
Соотношение сторон : 2,2:1
Режим частоты кадров : Постоянный
Частота кадров : 23,976 кадра/сек
Цветовое пространство : YUV
Субдискретизация насыщенности : 4:2:0
Битовая глубина : 8 бит
Тип развёртки : Прогрессивная
Бит/(Пиксели*Кадры) : 0.237
Размер потока : 3,23 Гбайт (74%)
Библиотека кодирования : x264 core 133 r2334 a3ac64b
Настройки программы : cabac=1 / ref=8 / deblock=1:-2:-2 / analyse=0x3:0x113 / me=umh / subme=11 / psy=1 / psy_rd=1.00:0.00 / mixed_ref=1 / me_range=48 / chroma_me=1 / trellis=2 / 8x8dct=1 / cqm=0 / deadzone=21,11 / fast_pskip=0 / chroma_qp_offset=1 / threads=6 / lookahead_threads=1 / sliced_threads=0 / nr=0 / decimate=0 / interlaced=0 / bluray_compat=0 / constrained_intra=0 / bframes=8 / b_pyramid=2 / b_adapt=2 / b_bias=0 / direct=3 / weightb=1 / open_gop=0 / weightp=2 / keyint=240 / keyint_min=23 / scenecut=40 / intra_refresh=0 / rc_lookahead=40 / rc=2pass / mbtree=0 / bitrate=2700 / ratetol=1.0 / qcomp=0.60 / qpmin=0 / qpmax=69 / qpstep=4 / cplxblur=20.0 / qblur=0.5 / vbv_maxrate=50000 / vbv_bufsize=52500 / nal_hrd=none / ip_ratio=1.40 / pb_ratio=1.30 / aq=1:0.80
Язык : English
Default : Да
Forced : Нет

Аудио #1
Идентификатор : 2
Формат : AC-3
Формат/Информация : Audio Coding 3
Расширение режима : CM (complete main)
Параметр Endianness формата : Big
Идентификатор кодека : A_AC3
Продолжительность : 2 ч. 55 м.
Вид битрейта : Постоянный
Битрейт : 384 Кбит/сек
Каналы : 4 канала
Расположение каналов : Front: L C R, LFE
Частота : 48,0 КГц
Битовая глубина : 16 бит
Метод сжатия : С потерями
Размер потока : 483 Мбайт (11%)
Язык : Russian
Default : Да
Forced : Нет

Аудио #2
Идентификатор : 3
Формат : AC-3
Формат/Информация : Audio Coding 3
Расширение режима : CM (complete main)
Параметр Endianness формата : Big
Идентификатор кодека : A_AC3
Продолжительность : 2 ч. 55 м.
Вид битрейта : Постоянный
Битрейт : 448 Кбит/сек
Каналы : 6 каналов
Расположение каналов : Front: L C R, Side: L R, LFE
Частота : 48,0 КГц
Битовая глубина : 16 бит
Метод сжатия : С потерями
Размер потока : 564 Мбайт (13%)
Язык : English
Default : Нет
Forced : Нет

Текст
Идентификатор : 4
Формат : UTF-8
Идентификатор кодека : S_TEXT/UTF8
Идентификатор кодека/Информация : UTF-8 Plain Text
Язык : Russian
Default : Да
Forced : Нет

Меню
00:00:00.000 : :Chapter 01
00:04:36.775 : :Chapter 02
00:08:50.820 : :Chapter 03
00:13:19.882 : :Chapter 04
00:17:23.459 : :Chapter 05
00:21:48.015 : :Chapter 06
00:24:42.563 : :Chapter 07
00:29:19.382 : :Chapter 08
00:34:16.012 : :Chapter 09
00:38:16.377 : :Chapter 10
00:41:34.116 : :Chapter 11
00:43:39.241 : :Chapter 12
00:46:56.063 : :Chapter 13
00:53:30.248 : :Chapter 14
00:57:43.293 : :Chapter 15
00:59:49.919 : :Chapter 16
01:03:51.285 : :Chapter 17
01:07:17.992 : :Chapter 18
01:12:20.711 : :Chapter 19
01:16:06.395 : :Chapter 20
01:21:37.600 : :Chapter 21
01:25:04.765 : :Chapter 22
01:27:39.963 : :Chapter 23
01:33:28.853 : :Chapter 24
01:40:51.712 : :Chapter 25
01:44:25.842 : :Chapter 26
01:44:50.242 : :Chapter 27
01:46:25.378 : :Chapter 28
01:50:49.934 : :Chapter 29
01:57:52.064 : :Chapter 30
02:01:11.555 : :Chapter 31
02:06:46.223 : :Chapter 32
02:09:58.499 : :Chapter 33
02:14:17.257 : :Chapter 34
02:17:10.263 : :Chapter 35
02:21:12.379 : :Chapter 36
02:23:32.186 : :Chapter 37
02:28:36.949 : :Chapter 38
02:30:45.619 : :Chapter 39
02:33:28.949 : :Chapter 40
02:38:27.664 : :Chapter 41
02:43:33.595 : :Chapter 42
02:47:18.236 : :Chapter 43
02:50:45.067 : :Chapter 44
02:54:57.861 : :Chapter 45
02:55:57.629 : :Chapter 46
x264 [info]: frame I:1894 Avg QP:15.15 size: 85121
x264 [info]: frame P:64038 Avg QP:18.08 size: 27118
x264 [info]: frame B:187204 Avg QP:19.88 size: 8897

Страна: США
Студия: Cherokee Productions, Douglas & Lewis Productions, Joel Productions, John Frankenheimer Productions Inc., Metro-Goldwyn-Mayer (MGM)
Продолжительность: 02:55:57
Перевод: Профессиональный двухголосый (Film Prestige)

Файл
Кодек: x264
Качество: BDRip (AVC)
Видео: MPEG-4 AVC, 2700 Кбит/с, 1024x464, 23.976 кадр/с
Звук:
Аудио #1: Русский (AC3, 4 ch, 384 Кбит/с) / Профессиональный двухголосый (Film Prestige)
Аудио #2: Английский (AC3, 6 ch, 448 Кбит/с)
Субтитры: Русские

Семпл Релиз от: Рип - Викс



Скачать Гран.при.Большой.приз.Grand.Prix.(Джон.Франкенхаймер).[1966.драма.спорт.BDRip].[AVC].[DVO]+[Sub].torrent без регистрации
Золото ЗОЛОТАЯ РАЗДАЧА! СКАЧАННОЕ НЕ ЗАСЧИТЫВАЕТСЯ! Золото
Дата: Зарегистрирован   [ Тип: внутренний ] Как тут cкачать?
MAGNET ссылка
MAGNET ссылка


Скачать .torrent

23 KB

Статус: проверено DHT
Скачан: торрент - 108 раз, раздача полностью - 33 раз
Размер: 4,34 GB
Оценка:  - (Голосов: 0)
Поблагодарили: 0
Поделиться ссылкой на эту раздачу с друзьями:
В контактеFacebookОдноклассникиTwitterLivejournalМой МирLiveinternet
 

 
Показать сообщения:    


Вы не можете начинать темы
Вы не можете отвечать на сообщения
Вы не можете редактировать свои сообщения
Вы не можете удалять свои сообщения
Вы не можете голосовать в опросах
Вы не можете прикреплять файлы к сообщениям
Вы можете скачивать файлы