Loading...
Error

Скачать Жизненная сила / Lifeforce (Тоуб Хупер) [1985, ужасы, фантастика, триллер, BDRip-AVC] [MVO]+[AVO]+[Оригинал]+[Sub] торрент без регистрации

 
Статистика раздачи
Размер:  3,32 GB   |    Скачан:  118 раз

Полного источника не было: 22 минуты

 
Автор Сообщение

Marsianka

[] 

Информация о фильме
Название: Жизненная сила
Оригинальное название: Lifeforce
Год выхода: 1985
Жанр: ужасы, фантастика, триллер
Режиссер: Тоуб Хупер
В ролях: Стив Рейлсбэк, Питер Фёрт, Фрэнк Финлей, Матильда Мэй, Патрик Стюарт, Майкл Гозард, Николас Болл, Обри Моррис, Нэнси Пол, Джон Хэллам

О фильме:
Космическая экспедиция исследует комету Галлея и натыкается на новую форму разумной жизни нечто вроде космических вампиров, вместо крови черпающих энергию из своих жертв. Забрав этих чудовищ в образах очень красивой обнаженной женщины и двух мужчин на борт, космонавты совершили страшную ошибку. Мало того, что все они, кроме Рэйлсбэка погибли, вампиры проникли на Землю, где начали массовую заготовку жизенной силы, забирая ее у людей, превращавшихся в нечто вроде зомби. Все это напоминает конец света



Страна: Великобритания, США
Студия: Easedram Limited, Golan, Globus Production, London-Cannon Films
Продолжительность: 01:56:15
Перевод: Профессиональный многоголосый, авторский одноголосый

Файл
Кодек: MPEG-4 AVC
Качество: BDRip (AVC)
Видео: 2231 Кбит/с, 1024x432
Звук: Русский, украинский (AC3, 1 ch, 192 Кбит/с), русский (AC3, 2 ch, 192 Кбит/с), (AC3, 6 ch, 384 Кбит/с), (AC3, 6 ch, 448 Кбит/с), английский (AC3, 6 ch, 448 Кбит/с)
Субтитры: Английские
Рип от StarbirS
За исходник спасибо АДмин

Аудио: Dolby Digital Audio Russian 192 kbps 2.0 / 48 kHz / 192 kbps / DN -4dB / Dolby Surround - ТВ 1000
Аудио: Dolby Digital Audio Russian 192 kbps 1.0 / 48 kHz / 192 kbps - 5-ый канал*
Аудио: Dolby Digital Audio Russian 448 kbps 5.1 / 48 kHz / 448 kbps / DN -4dB - А.Гаврилов
Аудио: Dolby Digital Audio Russian 384 kbps 5.1 / 48 kHz / 384 kbps / DN -4dB - С.Визгунов
Аудио: Dolby Digital Audio Ukrainian 192 kbps 1.0 / 48 kHz / 192 kbps - 1+1
Аудио: Dolby Digital Audio English 448 kbps 5.1 / 48 kHz / 448 kbps / DN -4dB - Оригинал

* в сети еще известен как "НТВ", но это НЕ так, стерео бороздящее просторы интернета "липа" раздутая из моно, причем непонятно чем перетянута, из-за чего эффект "булькания" с металлическим фоном, в данной дорожке таких "спецэффектов" нет

x264 [info]: frame I:2446 Avg QP:19.12 size: 47303
x264 [info]: frame P:92788 Avg QP:21.92 size: 15563
x264 [info]: frame B:71999 Avg QP:23.09 size: 5347
x264 [info]: consecutive B-frames: 27.3% 40.9% 17.0% 12.0% 2.2% 0.3% 0.2% 0.0% 0.1%
Формат : Matroska
Версия формата : Version 4 / Version 2
Размер файла : 3,32 Гбайт
Продолжительность : 1 ч. 56 м.
Общий поток : 4089 Кбит/сек
Название фильма : Lifeforce.1985.BDRip.(AVC)
Дата кодирования : UTC 2013-11-05 17:48:20
Программа кодирования : mkvmerge v6.3.0 ('You can't stop me!') built on Jun 28 2013 20:09:41
Библиотека кодирования : libebml v1.3.0 + libmatroska v1.4.0

Видео
Идентификатор : 1
Формат : AVC
Формат/Информация : Advanced Video Codec
Профиль формата : High@L4.1
Параметр CABAC формата : Да
Параметр ReFrames формата : 10 кадров
Идентификатор кодека : V_MPEG4/ISO/AVC
Продолжительность : 1 ч. 56 м.
Битрейт : 2231 Кбит/сек
Ширина : 1024 пикселя
Высота : 432 пикселя
Соотношение сторон : 2,40:1
Режим частоты кадров : Постоянный
Частота кадров : 23,976 кадра/сек
Цветовое пространство : YUV
Субдискретизация насыщенности : 4:2:0
Битовая глубина : 8 бит
Тип развёртки : Прогрессивная
Бит/(Пиксели*Кадры) : 0.210
Размер потока : 1,75 Гбайт (53%)
Заголовок : Lifeforce.1985.BDRip.(AVC)
Библиотека кодирования : x264 core 130 r2273 b3065e6
Настройки программы : cabac=1 / ref=10 / deblock=1:-3:-3 / analyse=0x3:0x133 / me=umh / subme=10 / psy=1 / psy_rd=1.00:0.15 / mixed_ref=1 / me_range=48 / chroma_me=1 / trellis=2 / 8x8dct=1 / cqm=0 / deadzone=21,11 / fast_pskip=0 / chroma_qp_offset=-3 / threads=6 / lookahead_threads=1 / sliced_threads=0 / nr=0 / decimate=1 / interlaced=0 / bluray_compat=0 / constrained_intra=0 / bframes=8 / b_pyramid=2 / b_adapt=1 / b_bias=0 / direct=3 / weightb=1 / open_gop=1 / weightp=2 / keyint=240 / keyint_min=23 / scenecut=40 / intra_refresh=0 / rc_lookahead=50 / rc=2pass / mbtree=1 / bitrate=2231 / ratetol=1.0 / qcomp=0.60 / qpmin=0 / qpmax=69 / qpstep=4 / cplxblur=20.0 / qblur=0.5 / ip_ratio=1.40 / aq=1:1.00
Язык : English
Default : Да
Forced : Нет
Основные цвета : BT.709
Характеристики трансфера : BT.709
Коэффициенты матрицы : BT.709

Аудио #1
Идентификатор : 2
Формат : AC-3
Формат/Информация : Audio Coding 3
Профиль формата : Dolby Digital
Расширение режима : CM (complete main)
Параметр Endianness формата : Big
Идентификатор кодека : A_AC3
Продолжительность : 1 ч. 56 м.
Вид битрейта : Постоянный
Битрейт : 192 Кбит/сек
Каналы : 2 канала
Расположение каналов : Front: L R
Частота : 48,0 КГц
Битовая глубина : 16 бит
Метод сжатия : С потерями
Размер потока : 160 Мбайт (5%)
Заголовок : Профессиональный многоголосый (ТВ 1000)
Язык : Russian
Default : Да
Forced : Нет

Аудио #2
Идентификатор : 3
Формат : AC-3
Формат/Информация : Audio Coding 3
Расширение режима : CM (complete main)
Параметр Endianness формата : Big
Идентификатор кодека : A_AC3
Продолжительность : 1 ч. 56 м.
Вид битрейта : Постоянный
Битрейт : 192 Кбит/сек
Каналы : 1 канал
Расположение каналов : Front: C
Частота : 48,0 КГц
Битовая глубина : 16 бит
Метод сжатия : С потерями
Размер потока : 160 Мбайт (5%)
Заголовок : Профессиональный многоголосый (5й канал)
Язык : Russian
Default : Нет
Forced : Нет

Аудио #3
Идентификатор : 4
Формат : AC-3
Формат/Информация : Audio Coding 3
Расширение режима : CM (complete main)
Параметр Endianness формата : Big
Идентификатор кодека : A_AC3
Продолжительность : 1 ч. 56 м.
Вид битрейта : Постоянный
Битрейт : 448 Кбит/сек
Каналы : 6 каналов
Расположение каналов : Front: L C R, Side: L R, LFE
Частота : 48,0 КГц
Битовая глубина : 16 бит
Метод сжатия : С потерями
Размер потока : 373 Мбайт (11%)
Заголовок : Авторский одноголосый (А.Гаврилов)
Язык : Russian
Default : Нет
Forced : Нет

Аудио #4
Идентификатор : 5
Формат : AC-3
Формат/Информация : Audio Coding 3
Расширение режима : CM (complete main)
Параметр Endianness формата : Big
Идентификатор кодека : A_AC3
Продолжительность : 1 ч. 56 м.
Вид битрейта : Постоянный
Битрейт : 384 Кбит/сек
Каналы : 6 каналов
Расположение каналов : Front: L C R, Side: L R, LFE
Частота : 48,0 КГц
Битовая глубина : 16 бит
Метод сжатия : С потерями
Размер потока : 319 Мбайт (9%)
Заголовок : Авторский одноголосый (С.Визгунов)
Язык : Russian
Default : Нет
Forced : Нет

Аудио #5
Идентификатор : 6
Формат : AC-3
Формат/Информация : Audio Coding 3
Расширение режима : CM (complete main)
Параметр Endianness формата : Big
Идентификатор кодека : A_AC3
Продолжительность : 1 ч. 56 м.
Вид битрейта : Постоянный
Битрейт : 192 Кбит/сек
Каналы : 1 канал
Расположение каналов : Front: C
Частота : 48,0 КГц
Битовая глубина : 16 бит
Метод сжатия : С потерями
Размер потока : 160 Мбайт (5%)
Заголовок : Профессиональный многоголосый (1+1)
Язык : Ukrainian
Default : Нет
Forced : Нет

Аудио #6
Идентификатор : 7
Формат : AC-3
Формат/Информация : Audio Coding 3
Расширение режима : CM (complete main)
Параметр Endianness формата : Big
Идентификатор кодека : A_AC3
Продолжительность : 1 ч. 56 м.
Вид битрейта : Постоянный
Битрейт : 448 Кбит/сек
Каналы : 6 каналов
Расположение каналов : Front: L C R, Side: L R, LFE
Частота : 48,0 КГц
Битовая глубина : 16 бит
Метод сжатия : С потерями
Размер потока : 373 Мбайт (11%)
Заголовок : Оригинал
Язык : English
Default : Нет
Forced : Нет

Текст
Идентификатор : 8
Формат : UTF-8
Идентификатор кодека : S_TEXT/UTF8
Идентификатор кодека/Информация : UTF-8 Plain Text
Язык : English
Default : Да
Forced : Нет



Скачать Жизненная.сила.Lifeforce.(Тоуб.Хупер).[1985.ужасы.фантастика.триллер.BDRip-AVC].[MVO]+[AVO]+[Оригинал]+[Sub].torrent без регистрации
Золото ЗОЛОТАЯ РАЗДАЧА! СКАЧАННОЕ НЕ ЗАСЧИТЫВАЕТСЯ! Золото
Дата: Зарегистрирован   [ Тип: внутренний ] Как тут cкачать?
MAGNET ссылка
MAGNET ссылка


Скачать .torrent

17 KB

Статус: проверено DHT
Скачан: торрент - 118 раз, раздача полностью - 9 раз
Размер: 3,32 GB
Оценка:  - (Голосов: 0)
Поблагодарили: 1
Поделиться ссылкой на эту раздачу с друзьями:
В контактеFacebookОдноклассникиTwitterLivejournalМой МирLiveinternet
 

 
Показать сообщения:    


Вы не можете начинать темы
Вы не можете отвечать на сообщения
Вы не можете редактировать свои сообщения
Вы не можете удалять свои сообщения
Вы не можете голосовать в опросах
Вы не можете прикреплять файлы к сообщениям
Вы можете скачивать файлы