Loading...
Error

Скачать Робот Джокс / Роботы бойцы / Robot Jox (Стюарт Гордон) [1989, фантастика, боевик, HDTVRip] [AVC] [DVO]x2+[AVO]+[Sub] торрент без регистрации

 
Статистика раздачи
Размер:  2,18 GB   |    Скачан:  125 раз
Сидов:  1  [  0 KB/s  ]  
 
Автор Сообщение

Marsianka

[] 

Информация о фильме
Название: Робот Джокс / Роботы бойцы
Оригинальное название: Robot Jox
Год выхода: 1989
Жанр: фантастика, боевик
Режиссер: Стюарт Гордон
В ролях: Гари Грэхэм, Энн-Мари Джонсон, Пол Косло, Роберт Сэмпсон, Дэнни Камекона, Хилари Мейсон, Майкл Олдредж, Джеффри Комбс, Майкл Саад, Йен Патрик Уильямс

О фильме:
Спустя полвека после окончания ядерной войны человечество нашло способ более цивилизованного разрешения конфликтов. Представители новообразованных государств выставляют на бой гигантских роботов, управляемых пилотами, сидящими внутри, Роботов Джокс. Ахиллес (Гэри Грэм), выходец с Аляски, является последней надеждой американцев. Их основных соперников, русских, представляет многоопытный пилот по имени Александр (Пол Косло), на чьём счету несколько побед над его соотечественниками.




Страна: США
Студия: Altar Productions, Empire Pictures
Продолжительность: 01:21:08
Перевод: Профессиональный двухголосый, любительский двухголосый, авторский одноголосый

Файл
Кодек: MPEG-4 AVC
Качество: HDTVRip (AVC)
Видео: 2686 Кбит/с, 1024x552
Звук: Русский (AC3, 2 ch, 192 Кбит/с), английский (AC3, 2 ch, 384 Кбит/с)
Субтитры: Русские, английские
Рип от StarbirS
за исходник спасибо Mirmekiy

Аудио: Dolby Digital Audio Russian 192 kbps 2.0 / 48 kHz / 192 kbps - двухголосый (НТВ+)
Аудио: Dolby Digital Audio Russian 192 kbps 2.0 / 48 kHz / 192 kbps - любительский двухголосый
Аудио: Dolby Digital Audio Russian 192 kbps 2.0 / 48 kHz / 192 kbps - авторский одноголосый (В.Дохалов)
Аудио: Dolby Digital Audio Russian 192 kbps 2.0 / 48 kHz / 192 kbps - авторский одноголосый (М.Иванов)

Субтитры: русские- Nov@rtiS & Tiger, английские

x264 [info]: frame I:1485 Avg QP:17.49 size: 57037
x264 [info]: frame P:59935 Avg QP:19.94 size: 20435
x264 [info]: frame B:60285 Avg QP:22.30 size: 5381
x264 [info]: consecutive B-frames: 18.8% 41.7% 15.2% 18.3% 5.5% 0.2% 0.1% 0.0% 0.2%
Формат : Matroska
Версия формата : Version 4 / Version 2
Размер файла : 2,18 Гбайт
Продолжительность : 1 ч. 21 м.
Общий поток : 3840 Кбит/сек
Название фильма : Robot.Jox.1989.HDTVRip.(AVC)
Дата кодирования : UTC 2013-11-07 06:53:19
Программа кодирования : mkvmerge v6.3.0 ('You can't stop me!') built on Jun 28 2013 20:09:41
Библиотека кодирования : libebml v1.3.0 + libmatroska v1.4.0

Видео
Идентификатор : 1
Формат : AVC
Формат/Информация : Advanced Video Codec
Профиль формата : High@L4.1
Параметр CABAC формата : Да
Параметр ReFrames формата : 10 кадров
Идентификатор кодека : V_MPEG4/ISO/AVC
Продолжительность : 1 ч. 21 м.
Битрейт : 2686 Кбит/сек
Ширина : 1024 пикселя
Высота : 552 пикселя
Соотношение сторон : 1,85:1
Режим частоты кадров : Постоянный
Частота кадров : 25,000 кадров/сек
Цветовое пространство : YUV
Субдискретизация насыщенности : 4:2:0
Битовая глубина : 8 бит
Тип развёртки : Прогрессивная
Бит/(Пиксели*Кадры) : 0.190
Размер потока : 1,48 Гбайт (68%)
Заголовок : Robot.Jox.1989.HDTVRip.(AVC)
Библиотека кодирования : x264 core 130 r2273 b3065e6
Настройки программы : cabac=1 / ref=10 / deblock=1:-3:-3 / analyse=0x3:0x133 / me=umh / subme=10 / psy=1 / psy_rd=1.00:0.15 / mixed_ref=1 / me_range=48 / chroma_me=1 / trellis=2 / 8x8dct=1 / cqm=0 / deadzone=21,11 / fast_pskip=0 / chroma_qp_offset=-3 / threads=6 / lookahead_threads=1 / sliced_threads=0 / nr=0 / decimate=1 / interlaced=0 / bluray_compat=0 / constrained_intra=0 / bframes=8 / b_pyramid=2 / b_adapt=1 / b_bias=0 / direct=3 / weightb=1 / open_gop=1 / weightp=2 / keyint=240 / keyint_min=23 / scenecut=40 / intra_refresh=0 / rc_lookahead=50 / rc=2pass / mbtree=1 / bitrate=2686 / ratetol=1.0 / qcomp=0.60 / qpmin=0 / qpmax=69 / qpstep=4 / cplxblur=20.0 / qblur=0.5 / ip_ratio=1.40 / aq=1:1.00
Язык : English
Default : Да
Forced : Нет
Основные цвета : BT.709
Характеристики трансфера : BT.709
Коэффициенты матрицы : BT.709

Аудио #1
Идентификатор : 2
Формат : AC-3
Формат/Информация : Audio Coding 3
Расширение режима : CM (complete main)
Параметр Endianness формата : Big
Идентификатор кодека : A_AC3
Продолжительность : 1 ч. 21 м.
Вид битрейта : Постоянный
Битрейт : 192 Кбит/сек
Каналы : 2 канала
Расположение каналов : Front: L R
Частота : 48,0 КГц
Битовая глубина : 16 бит
Метод сжатия : С потерями
Размер потока : 111 Мбайт (5%)
Заголовок : Профессиональный двухголосый (НТВ+)
Язык : Russian
Default : Нет
Forced : Нет

Аудио #2
Идентификатор : 3
Формат : AC-3
Формат/Информация : Audio Coding 3
Расширение режима : CM (complete main)
Параметр Endianness формата : Big
Идентификатор кодека : A_AC3
Продолжительность : 1 ч. 21 м.
Вид битрейта : Постоянный
Битрейт : 192 Кбит/сек
Каналы : 2 канала
Расположение каналов : Front: L R
Частота : 48,0 КГц
Битовая глубина : 16 бит
Метод сжатия : С потерями
Размер потока : 111 Мбайт (5%)
Заголовок : Любительский двухголосый
Язык : Russian
Default : Нет
Forced : Нет

Аудио #3
Идентификатор : 4
Формат : AC-3
Формат/Информация : Audio Coding 3
Расширение режима : CM (complete main)
Параметр Endianness формата : Big
Идентификатор кодека : A_AC3
Продолжительность : 1 ч. 21 м.
Вид битрейта : Постоянный
Битрейт : 192 Кбит/сек
Каналы : 2 канала
Расположение каналов : Front: L R
Частота : 48,0 КГц
Битовая глубина : 16 бит
Метод сжатия : С потерями
Размер потока : 111 Мбайт (5%)
Заголовок : Авторский одноголосый (В.Дохалов)
Язык : Russian
Default : Нет
Forced : Нет

Аудио #4
Идентификатор : 5
Формат : AC-3
Формат/Информация : Audio Coding 3
Расширение режима : CM (complete main)
Параметр Endianness формата : Big
Идентификатор кодека : A_AC3
Продолжительность : 1 ч. 21 м.
Вид битрейта : Постоянный
Битрейт : 192 Кбит/сек
Каналы : 2 канала
Расположение каналов : Front: L R
Частота : 48,0 КГц
Битовая глубина : 16 бит
Метод сжатия : С потерями
Размер потока : 111 Мбайт (5%)
Заголовок : Авторский одноголосый (М.Иванов)
Язык : Russian
Default : Нет
Forced : Нет

Аудио #5
Идентификатор : 6
Формат : AC-3
Формат/Информация : Audio Coding 3
Расширение режима : CM (complete main)
Параметр Endianness формата : Big
Идентификатор кодека : A_AC3
Продолжительность : 1 ч. 21 м.
Вид битрейта : Постоянный
Битрейт : 384 Кбит/сек
Каналы : 2 канала
Расположение каналов : Front: L R
Частота : 48,0 КГц
Битовая глубина : 16 бит
Метод сжатия : С потерями
Размер потока : 223 Мбайт (10%)
Заголовок : Оригинал
Язык : English
Default : Нет
Forced : Нет

Текст #1
Идентификатор : 7
Формат : UTF-8
Идентификатор кодека : S_TEXT/UTF8
Идентификатор кодека/Информация : UTF-8 Plain Text
Заголовок : Русские
Язык : Russian
Default : Нет
Forced : Нет

Текст #2
Идентификатор : 8
Формат : UTF-8
Идентификатор кодека : S_TEXT/UTF8
Идентификатор кодека/Информация : UTF-8 Plain Text
Заголовок : Русские (Nov@rtiS & Tiger25)
Язык : Russian
Default : Нет
Forced : Нет

Текст #3
Идентификатор : 9
Формат : UTF-8
Идентификатор кодека : S_TEXT/UTF8
Идентификатор кодека/Информация : UTF-8 Plain Text
Заголовок : Английские
Язык : English
Default : Нет
Forced : Нет



Скачать Робот.Джокс.Роботы.бойцы.Robot.Jox.(Стюарт.Гордон).[1989.фантастика.боевик.HDTVRip].[AVC].[DVO]x2+[AVO]+[Sub].torrent без регистрации
Золото ЗОЛОТАЯ РАЗДАЧА! СКАЧАННОЕ НЕ ЗАСЧИТЫВАЕТСЯ! Золото
Дата: Зарегистрирован   [ Тип: внутренний ] Как тут cкачать?
MAGNET ссылка
MAGNET ссылка


Скачать .torrent

11 KB

Статус: проверено DHT
Скачан: торрент - 125 раз, раздача полностью - 276 раз
Размер: 2,18 GB
Оценка:  3 (Голосов: 1)
Поблагодарили: 2
Поделиться ссылкой на эту раздачу с друзьями:
В контактеFacebookОдноклассникиTwitterLivejournalМой МирLiveinternet
 

 
Показать сообщения:    


Вы не можете начинать темы
Вы не можете отвечать на сообщения
Вы не можете редактировать свои сообщения
Вы не можете удалять свои сообщения
Вы не можете голосовать в опросах
Вы не можете прикреплять файлы к сообщениям
Вы можете скачивать файлы