Loading...
Error

Скачать Свидетель на свадьбе / The Best Man (Стефан Шварц) [2005, мелодрама, комедия, WEB-DLRip-AVC] [Dub]+[MVO]+[Sub] торрент без регистрации

 
Статистика раздачи
Размер:  2,17 GB   |    Скачан:  106 раз

Полного источника не было: 23 минуты

 
Автор Сообщение

Marsianka

[] 

Информация о фильме
Название: Свидетель на свадьбе
Оригинальное название: The Best Man
Год выхода: 2005
Жанр: мелодрама, комедия
Режиссер: Стефан Шварц
В ролях: Стюарт Таунсенд, Эми Смарт, Сет Грин, Стив Джон Шеперд, Анна Чэнселлор, Саймон Кэллоу, Каллум Уильямс, Джоди Мэй, Мат Хауманн, Джейкоб Мориарти

О фильме:
Олли писатель-неудачник, имеющий самую посредственную работу для человека своего круга. Казалось бы, его жизнь уже лишена всякого смысла Но однажды случай меняет все Раздается неожиданный звонок от друга по колледжу Джеймса с просьбой стать свидетелем на его свадьбе. И, конечно же, Олли влюбляется с первого взгляда в красавицу-невесту, в будущую жену своего лучшего друга. Всячески пытаясь сдержать свои чувства к Саре, главный герой постепенно понимает, что его лучший друг вовсе не тот мужчина, который заслуживает любви такой прекрасной девушки. А что, если жених и свидетель поменяются местами?



Страна: США, Германия, Великобритания, Венгрия
Студия: Best Man Filmproduktions, Endgame Entertainment, Film Consortium, Hungarian Film Connection, Insider Films, Redbus Pictures, Surefire Film Productions LLP
Продолжительность: 01:35:34
Перевод: Дублированный, профессиональный многоголосый

Файл
Кодек: MPEG-4 AVC
Качество: WEB-DLRip (AVC)
Видео: 2295 Кбит/с, 1024x424
Звук: Русский (AC3, 2 ch, 192 Кбит/с), русский, английский (AC3, 6 ch, 384 Кбит/с)
Субтитры: Английские
Рип от StarbirS
За исходник спасибо K_A_E

Аудио: Dolby Digital Audio Russian 384 kbps 5.1 / DN -4dB / Dolby Surround - Дублированный
Аудио: Dolby Digital Audio Russian 192 kbps 1.0 / 48 kHz / 192 kbps - Многоголосый*
Аудио: Dolby Digital Audio English 384 kbps 5.1 / DN -4dB / Dolby Surround - Оригинал

Субтитры: английские

За запись с телеэфира многоголосой дорожки - Slim9174
*В дорожке 2 есть момент, где пара секунд без перевода

x264 [info]: frame I:1707 Avg QP:14.35 size: 81838
x264 [info]: frame P:51335 Avg QP:17.11 size: 22339
x264 [info]: frame B:84454 Avg QP:19.48 size: 4228
x264 [info]: consecutive B-frames: 8.4% 28.8% 16.6% 25.4% 16.7% 1.1% 0.4% 0.1% 2.5%
Формат : Matroska
Версия формата : Version 4 / Version 2
Размер файла : 2,17 Гбайт
Продолжительность : 1 ч. 35 м.
Общий поток : 3255 Кбит/сек
Название фильма : The.Best.Man.2005.WEB-DLRip.(AVC)
Дата кодирования : UTC 2013-11-06 17:11:57
Программа кодирования : mkvmerge v6.3.0 ('You can't stop me!') built on Jun 28 2013 20:09:41
Библиотека кодирования : libebml v1.3.0 + libmatroska v1.4.0
Attachment : Yes

Видео
Идентификатор : 1
Формат : AVC
Формат/Информация : Advanced Video Codec
Профиль формата : High@L4.1
Параметр CABAC формата : Да
Параметр ReFrames формата : 10 кадров
Идентификатор кодека : V_MPEG4/ISO/AVC
Продолжительность : 1 ч. 35 м.
Битрейт : 2295 Кбит/сек
Ширина : 1024 пикселя
Высота : 424 пикселя
Соотношение сторон : 2,40:1
Режим частоты кадров : Постоянный
Частота кадров : 23,976 кадра/сек
Цветовое пространство : YUV
Субдискретизация насыщенности : 4:2:0
Битовая глубина : 8 бит
Тип развёртки : Прогрессивная
Бит/(Пиксели*Кадры) : 0.220
Размер потока : 1,49 Гбайт (69%)
Заголовок : The.Best.Man.2005.WEB-DLRip.(AVC)
Библиотека кодирования : x264 core 130 r2273 b3065e6
Настройки программы : cabac=1 / ref=10 / deblock=1:-3:-3 / analyse=0x3:0x133 / me=umh / subme=10 / psy=1 / psy_rd=1.00:0.15 / mixed_ref=1 / me_range=48 / chroma_me=1 / trellis=2 / 8x8dct=1 / cqm=0 / deadzone=21,11 / fast_pskip=0 / chroma_qp_offset=-3 / threads=6 / lookahead_threads=1 / sliced_threads=0 / nr=0 / decimate=1 / interlaced=0 / bluray_compat=0 / constrained_intra=0 / bframes=8 / b_pyramid=2 / b_adapt=1 / b_bias=0 / direct=3 / weightb=1 / open_gop=1 / weightp=2 / keyint=240 / keyint_min=23 / scenecut=40 / intra_refresh=0 / rc_lookahead=50 / rc=2pass / mbtree=1 / bitrate=2295 / ratetol=1.0 / qcomp=0.60 / qpmin=0 / qpmax=69 / qpstep=4 / cplxblur=20.0 / qblur=0.5 / ip_ratio=1.40 / aq=1:1.00
Язык : English
Default : Да
Forced : Нет
Основные цвета : BT.709
Характеристики трансфера : BT.709
Коэффициенты матрицы : BT.709

Аудио #1
Идентификатор : 2
Формат : AC-3
Формат/Информация : Audio Coding 3
Расширение режима : CM (complete main)
Параметр Endianness формата : Big
Идентификатор кодека : A_AC3
Продолжительность : 1 ч. 35 м.
Вид битрейта : Постоянный
Битрейт : 384 Кбит/сек
Каналы : 6 каналов
Расположение каналов : Front: L C R, Side: L R, LFE
Частота : 48,0 КГц
Битовая глубина : 16 бит
Метод сжатия : С потерями
Размер потока : 263 Мбайт (12%)
Заголовок : Дублированный
Язык : Russian
Default : Да
Forced : Нет

Аудио #2
Идентификатор : 3
Формат : AC-3
Формат/Информация : Audio Coding 3
Расширение режима : CM (complete main)
Параметр Endianness формата : Big
Идентификатор кодека : A_AC3
Продолжительность : 1 ч. 35 м.
Вид битрейта : Постоянный
Битрейт : 192 Кбит/сек
Каналы : 2 канала
Расположение каналов : Front: L R
Частота : 48,0 КГц
Битовая глубина : 16 бит
Метод сжатия : С потерями
Размер потока : 131 Мбайт (6%)
Заголовок : Профессиональный многоголосый
Язык : Russian
Default : Нет
Forced : Нет

Аудио #3
Идентификатор : 4
Формат : AC-3
Формат/Информация : Audio Coding 3
Расширение режима : CM (complete main)
Параметр Endianness формата : Big
Идентификатор кодека : A_AC3
Продолжительность : 1 ч. 35 м.
Вид битрейта : Постоянный
Битрейт : 384 Кбит/сек
Каналы : 6 каналов
Расположение каналов : Front: L C R, Side: L R, LFE
Частота : 48,0 КГц
Битовая глубина : 16 бит
Метод сжатия : С потерями
Размер потока : 263 Мбайт (12%)
Заголовок : Оригинал
Язык : English
Default : Нет
Forced : Нет

Текст
Идентификатор : 5
Формат : UTF-8
Идентификатор кодека : S_TEXT/UTF8
Идентификатор кодека/Информация : UTF-8 Plain Text
Заголовок : Английские
Язык : English
Default : Нет
Forced : Нет

Меню
00:00:00.000 : en:Main Title
00:07:11.000 : en:The Best Man
00:18:40.000 : en:You Met Someone
00:27:50.000 : en:Can't Let Her Down
00:35:21.000 : en:Love and Respect
00:41:48.000 : en:Selling the Flat
00:47:54.000 : en:What's Going On?
00:55:00.000 : en:Surprise
01:03:13.000 : en:Writing the Letter
01:13:26.000 : en:Rehearsal
01:20:34.000 : en:I Love You
01:30:01.000 : en:End Credits



Скачать Свидетель.на.свадьбе.The.Best.Man.(Стефан.Шварц).[2005.мелодрама.комедия.WEB-DLRip-AVC].[Dub]+[MVO]+[Sub].torrent без регистрации
Золото ЗОЛОТАЯ РАЗДАЧА! СКАЧАННОЕ НЕ ЗАСЧИТЫВАЕТСЯ! Золото
Дата: Зарегистрирован   [ Тип: внутренний ] Как тут cкачать?
MAGNET ссылка
MAGNET ссылка


Скачать .torrent

11 KB

Статус: проверено DHT
Скачан: торрент - 106 раз, раздача полностью - 5 раз
Размер: 2,17 GB
Оценка:  - (Голосов: 0)
Поблагодарили: 0
Поделиться ссылкой на эту раздачу с друзьями:
В контактеFacebookОдноклассникиTwitterLivejournalМой МирLiveinternet
 

 
Показать сообщения:    


Вы не можете начинать темы
Вы не можете отвечать на сообщения
Вы не можете редактировать свои сообщения
Вы не можете удалять свои сообщения
Вы не можете голосовать в опросах
Вы не можете прикреплять файлы к сообщениям
Вы можете скачивать файлы