Loading...
Error

Скачать Улица потрошителя / Ripper Street (Полный 2-ой сезон) (Энди Уилсон, Том Шенклэнд, Колм МакКарти) [2013, детектив, драма, криминал, HDTVRip] [720p] [MVO] (NewStudio) торрент без регистрации

 
Статистика раздачи
Размер:  8,4 GB   |    Скачан:  224 раза
Сидов:  1  [  0 KB/s  ]  
 
Автор Сообщение

leon030982

[] 

Улица потрошителя / Ripper Street



Год выпуска: 2013
Страна: Великобритания | BBC One
Жанр: детектив, драма, криминал
Продолжительность: 00:59:00
Перевод: Профессиональный (многоголосый закадровый) NewStudio
Субтитры: нет
Режиссёры: Энди Уилсон, Том Шенклэнд, Колм МакКарти и др.

В ролях: Мэтью Макфейден, Джером Флинн, Адам Ротенберг, Дэвид Уилмот, МайАнна Бёринг, Шарлин МакКенна и др.
Описание: События данного сериала разворачиваются в Лондоне 1899 года, сразу после громких убийств, совершенных Джеком Потрошителем. Команда детективов расследует преступления, попутно стараясь успокоить панику среди жителей Ист-Энда.


Качество: HDTVRip 720p
Формат: MKV
Видео кодек: H.264
Аудио кодек: AC3
Видео: 1280x720 (16:9), 25.000 fps, 2314 kbps, 0.100 bit/pixel
Аудио 1: 48 kHz, 2 ch, 192 kbps - NewStudio
Аудио 2: 48 kHz, 2 ch, 192 kbps - English
Релиз:

Перевод: Александра Цернант.
Озвучание: NewStudioGroup.
Постер: Vortex.
Ориентировочный график появления новых серий: Среда-Четверг.
Внимание! Выход новой серии может быть перенесён из-за непредвиденных обстоятельств.
| Сэмпл | TVRage
01. Pure as the Driven / (18/Oct/2013)
02. Episode 2 / (04/Nov/2013)
03. Episode 3 / (11/Nov/2013)
04. Episode 4 / (18/Nov/2013)
Общее:
Формат : Matroska
Версия формата : Version 2
Размер файла : 1,13 Гбайт
Продолжительность : 58 м.
Общий поток : 2753 Кбит/сек
Дата кодирования : UTC 2013-10-30 18:47:08
Программа кодирования : mkvmerge v2.9.9 ('Tutu') built on Nov 25 2009 21:13:32
Библиотека кодирования : libebml v0.7.9 + libmatroska v0.8.1
Видео:
Формат : AVC
Формат/Информация : Advanced Video Codec
Профиль формата : High@L4.1
Параметр CABAC формата : Да
Параметр ReFrames формата : 5 кадров
Идентификатор кодека : V_MPEG4/ISO/AVC
Продолжительность : 58 м.
Битрейт : 2314 Кбит/сек
Ширина : 1280 пикселей
Высота : 720 пикселей
Соотношение сторон : 16:9
Режим частоты кадров : Постоянный
Частота кадров : 25,000 кадров/сек
Цветовое пространство : YUV
Субдискретизация насыщенности : 4:2:0
Битовая глубина : 8 бит
Тип развёртки : Прогрессивная
Бит/(Пиксели*Кадры) : 0.100
Размер потока : 977 Мбайт (84%)
Библиотека кодирования : x264 core 138 r2358 9e941d1
Настройки программы : cabac=1 / ref=5 / deblock=1:0:0 / analyse=0x3:0x113 / me=umh / subme=8 / psy=1 / psy_rd=1.00:0.00 / mixed_ref=1 / me_range=16 / chroma_me=1 / trellis=1 / 8x8dct=1 / cqm=0 / deadzone=21,11 / fast_pskip=1 / chroma_qp_offset=-2 / threads=18 / lookahead_threads=3 / sliced_threads=0 / nr=0 / decimate=1 / interlaced=0 / bluray_compat=0 / constrained_intra=0 / bframes=3 / b_pyramid=2 / b_adapt=2 / b_bias=0 / direct=3 / weightb=1 / open_gop=0 / weightp=2 / keyint=250 / keyint_min=25 / scenecut=40 / intra_refresh=0 / rc_lookahead=50 / rc=crf / mbtree=1 / crf=18.0 / qcomp=0.60 / qpmin=0 / qpmax=69 / qpstep=4 / ip_ratio=1.40 / aq=1:1.00
Язык : English
Default : Да
Forced : Нет
Аудио #1:
Формат : AC-3
Формат/Информация : Audio Coding 3
Расширение режима : CM (complete main)
Параметр Endianness формата : Big
Идентификатор кодека : A_AC3
Продолжительность : 58 м.
Вид битрейта : Постоянный
Битрейт : 192 Кбит/сек
Каналы : 2 канала
Расположение каналов : Front: L R
Частота : 48,0 КГц
Битовая глубина : 16 бит
Метод сжатия : С потерями
Размер потока : 81,0 Мбайт (7%)
Язык : Russian
Default : Да
Forced : Да
Аудио #2:
Формат : AC-3
Формат/Информация : Audio Coding 3
Расширение режима : CM (complete main)
Параметр Endianness формата : Big
Идентификатор кодека : A_AC3
Продолжительность : 58 м.
Вид битрейта : Постоянный
Битрейт : 192 Кбит/сек
Каналы : 2 канала
Расположение каналов : Front: L R
Частота : 48,0 КГц
Битовая глубина : 16 бит
Метод сжатия : С потерями
Размер потока : 81,0 Мбайт (7%)
Default : Нет
Forced : Нет
Внимание! Раздача ведётся путём добавления новых серий; при каждом добавлении создаётся новый торрент. Чтобы начать докачку новой серии, пользователям необходимо сделать следующее:
(1) остановить скачивание,
(2) удалить старый торрент у себя из клиента (старые серии удалять не надо),
(3) скачать новый торрент и запустить его у себя в клиенте вместо старого, при этом указать клиенту путь в старую папку куда и должно происходить скачивание новых серий.
Ваш клиент при этом должен произвести хеширование (проверку) старой папки (если не производит сам - помогите ему сделать это), и будет докачивать только те серии которых у вас ещё нет. Старые серии при этом не удаляются, а продолжают раздаваться!
Eсли вы уже удалили старые серии, то предотвратить повторную закачку старых серий можно, отжав галочку в соответствующих местах при запуске нового торрента. По возможности, желательно не удалять старые серии как можно дольше чтобы релизёр не столько продолжал раздавать старые серии, а смог сконцентрироваться на новых.



Скачать Улица.потрошителя.Ripper.Street.(Полный.2-ой.сезон).(Энди.Уилсон.Том.Шенклэнд.Колм.МакКарти).[2013.детектив.драма.криминал.HDTVRip].[720p].[MVO].(NewStudio).torrent без регистрации
Золото ЗОЛОТАЯ РАЗДАЧА! СКАЧАННОЕ НЕ ЗАСЧИТЫВАЕТСЯ! Золото
Дата: Зарегистрирован   [ Тип: внутренний ] Как тут cкачать?
MAGNET ссылка
MAGNET ссылка


Скачать .torrent

22 KB

Статус: проверено DHT
Скачан: торрент - 224 раз, раздача полностью - 37 раз
Размер: 8,4 GB
Оценка:  5 (Голосов: 2)
Поблагодарили: 4
Поделиться ссылкой на эту раздачу с друзьями:
В контактеFacebookОдноклассникиTwitterLivejournalМой МирLiveinternet
 

 

leon030982

[] 

3-я серия ay
 

leon030982

[] 

4-я серия az
 

leon030982

[] 

обновлено!
 

leon030982

[] 

обновлено
 

leon030982

[] 

Добавлена 7-я серия ab
 

leon030982

[] 

финальная серия
 
Показать сообщения:    


Вы не можете начинать темы
Вы не можете отвечать на сообщения
Вы не можете редактировать свои сообщения
Вы не можете удалять свои сообщения
Вы не можете голосовать в опросах
Вы не можете прикреплять файлы к сообщениям
Вы можете скачивать файлы