Loading...
Error

Скачать Возвращение в голубую лагуну / Return to the Blue Lagoon (Уильям А. Грэм) [1991, драма, мелодрама, приключения, DVDRip-AVC] [MVO]+[Оригинал]+[Sub] торрент без регистрации

 
Статистика раздачи
Размер:  3 GB   |    Скачан:  141 раз
Сидов:  1  [  0 KB/s  ]  
 
Автор Сообщение

Marsianka

[] 

Информация о фильме
Название: Возвращение в голубую лагуну
Оригинальное название: Return to the Blue Lagoon
Год выхода: 1991
Жанр: драма, мелодрама, приключения
Режиссер: Уильям А. Грэм
В ролях: Милла Йовович, Брайан Краузе, Лиза Пеликан, Кортни Барилла, Гэретт Рэтлиф Хенсон, Эмма Джеймс, Джексон Бартон, Нана Коберн, Брайан Блен, Питер Хехир

О фильме:
Даже в Раю нельзя остановить бег времени, герои «Голубой Лагуны», долгие годы счастливо прожившие на идиллическом необитаемом острове, умерли, но их тропический рай не остался пустыней. На смену им пришли их сын Ричард и девочка Лили, дочь погибшей пассажирки с проходившего мимо корабля.
Вынужденные с восьми лет жить одни в затерянном среди океана тропическом раю, они беспечно проводили дни в своем Эдеме, незаметно превращаясь из мальчика и девочки в мужчину и женщину. Но однажды у острова бросает якорь корабль. И вместе с ним в жизнь невинных островитян приходят соблазны и опасности цивилизации, грозящие разрушить идиллию их жизни



Страна: США
Студия: Columbia Pictures Corporation, Price Entertainment
Продолжительность: 01:37:44
Перевод: Профессиональный (многоголосый, закадровый) + Оригинал

Файл
Кодек: x264
Качество: DVDRip-AVC (источник: DVD5)
Видео: 1024х564 (16:9), 3951 Kbps, 25.000 fps, 0.274 bit/pixel
Аудио #1: 48.0 kHz, AC3 Dolby Digital, 2/0 (L,R) ch, 256 kbps [Многоголосый]
Аудио #2: 48.0 kHz, AC3 Dolby Digital, 2/0 (L,R) ch, 192 kbps [Оригинал, Английский]
Субтитры: Русские, английские
Семпл
x264 [info]: frame I:1022 Avg QP:18.00 size: 69762
x264 [info]: frame P:31358 Avg QP:21.00 size: 34781
x264 [info]: frame B:114220 Avg QP:22.96 size: 15177
General
Unique ID : 177635664691907235383019034053682912904 (0x85A36273F96C0E998740908D66E3DE88)
Complete name : E:Return.to.the.Blue.Lagoon.1991.x264.DVDRip-AVC.mkv
Format : Matroska
Format version : Version 2
File size : 3.00 GiB
Duration : 1h 37mn
Overall bit rate : 4 400 Kbps
Encoded date : UTC 2013-11-08 20:06:59
Writing application : mkvmerge v5.8.0 ('No Sleep / Pillow') built on Sep 2 2012 15:37:04
Writing library : libebml v1.2.3 + libmatroska v1.3.0

Video
ID : 1
Format : AVC
Format/Info : Advanced Video Codec
Format profile : High@L4.1
Format settings, CABAC : Yes
Format settings, ReFrames : 9 frames
Codec ID : V_MPEG4/ISO/AVC
Duration : 1h 37mn
Bit rate : 3 951 Kbps
Width : 1 024 pixels
Height : 564 pixels
Display aspect ratio : 16:9
Frame rate mode : Constant
Frame rate : 25.000 fps
Color space : YUV
Chroma subsampling : 4:2:0
Bit depth : 8 bits
Scan type : Progressive
Bits/(Pixel*Frame) : 0.274
Stream size : 2.64 GiB (88%)
Writing library : x264 core 140 r2377 1ca7bb9
Encoding settings : cabac=1 / ref=9 / deblock=1:-3:-3 / analyse=0x3:0x133 / me=tesa / subme=11 / psy=1 / psy_rd=1.00:0.07 / mixed_ref=1 / me_range=32 / chroma_me=1 / trellis=2 / 8x8dct=1 / cqm=0 / deadzone=21,11 / fast_pskip=0 / chroma_qp_offset=-3 / threads=12 / lookahead_threads=1 / sliced_threads=0 / nr=0 / decimate=0 / interlaced=0 / bluray_compat=0 / constrained_intra=0 / bframes=6 / b_pyramid=2 / b_adapt=2 / b_bias=0 / direct=3 / weightb=0 / open_gop=0 / weightp=2 / keyint=250 / keyint_min=25 / scenecut=40 / intra_refresh=0 / rc=2pass / mbtree=0 / bitrate=3951 / ratetol=1.0 / qcomp=0.60 / qpmin=0 / qpmax=69 / qpstep=4 / cplxblur=20.0 / qblur=0.5 / ip_ratio=1.40 / pb_ratio=1.30 / aq=1:1.00
Language : English
Default : Yes
Forced : No

Audio #1
ID : 2
Format : AC-3
Format/Info : Audio Coding 3
Mode extension : CM (complete main)
Format settings, Endianness : Big
Codec ID : A_AC3
Duration : 1h 37mn
Bit rate mode : Constant
Bit rate : 256 Kbps
Channel count : 2 channels
Channel positions : Front: L R
Sampling rate : 48.0 KHz
Bit depth : 16 bits
Compression mode : Lossy
Delay relative to video : 860ms
Stream size : 179 MiB (6%)
Title : Многоголосый
Language : Russian
Default : Yes
Forced : No

Audio #2
ID : 3
Format : AC-3
Format/Info : Audio Coding 3
Format profile : Dolby Digital
Mode extension : CM (complete main)
Format settings, Endianness : Big
Codec ID : A_AC3
Duration : 1h 37mn
Bit rate mode : Constant
Bit rate : 192 Kbps
Channel count : 2 channels
Channel positions : Front: L R
Sampling rate : 48.0 KHz
Bit depth : 16 bits
Compression mode : Lossy
Stream size : 134 MiB (4%)
Title : Оригинал, Английский
Language : English
Default : No
Forced : No

Text #1
ID : 4
Format : UTF-8
Codec ID : S_TEXT/UTF8
Codec ID/Info : UTF-8 Plain Text
Language : Russian
Default : No
Forced : No

Text #2
ID : 5
Format : UTF-8
Codec ID : S_TEXT/UTF8
Codec ID/Info : UTF-8 Plain Text
Language : English
Default : No
Forced : No

Menu
00:00:00.000 : en:Chapter 1
00:02:43.080 : en:Chapter 2
00:05:02.640 : en:Chapter 3
00:10:22.560 : en:Chapter 4
00:14:59.280 : en:Chapter 5
00:20:12.760 : en:Chapter 6
00:23:57.040 : en:Chapter 7
00:27:24.600 : en:Chapter 8
00:28:44.080 : en:Chapter 9
00:31:52.800 : en:Chapter 10
00:38:39.400 : en:Chapter 11
00:40:24.040 : en:Chapter 12
00:43:34.600 : en:Chapter 13
00:44:35.080 : en:Chapter 14
00:48:38.520 : en:Chapter 15
00:52:41.000 : en:Chapter 16
00:57:25.360 : en:Chapter 17
00:59:40.000 : en:Chapter 18
01:04:06.280 : en:Chapter 19
01:06:20.840 : en:Chapter 20
01:08:05.760 : en:Chapter 21
01:13:38.240 : en:Chapter 22
01:18:01.360 : en:Chapter 23
01:20:18.360 : en:Chapter 24
01:21:53.000 : en:Chapter 25
01:26:46.880 : en:Chapter 26
01:28:55.400 : en:Chapter 27
01:30:56.520 : en:Chapter 28



Скачать Возвращение.в.голубую.лагуну.Return.to.the.Blue.Lagoon.(Уильям.А.Грэм).[1991.драма.мелодрама.приключения.DVDRip-AVC].[MVO]+[Оригинал]+[Sub].torrent без регистрации
Золото ЗОЛОТАЯ РАЗДАЧА! СКАЧАННОЕ НЕ ЗАСЧИТЫВАЕТСЯ! Золото
Дата: Зарегистрирован   [ Тип: внутренний ] Как тут cкачать?
MAGNET ссылка
MAGNET ссылка


Скачать .torrent

16 KB

Статус: проверено DHT
Скачан: торрент - 141 раз, раздача полностью - 11 раз
Размер: 3 GB
Оценка:  - (Голосов: 0)
Поблагодарили: 1
Поделиться ссылкой на эту раздачу с друзьями:
В контактеFacebookОдноклассникиTwitterLivejournalМой МирLiveinternet
 

 
Показать сообщения:    


Вы не можете начинать темы
Вы не можете отвечать на сообщения
Вы не можете редактировать свои сообщения
Вы не можете удалять свои сообщения
Вы не можете голосовать в опросах
Вы не можете прикреплять файлы к сообщениям
Вы можете скачивать файлы