Loading...
Error

Скачать Анатомия страсти / Grey's Anatomy (сезон 10) (Роб Корн и др.) [2013-2014, медицинская драма, мелодрама, WEB-DLRip] [MVO (Fox Life)]+[Eng] торрент без регистрации

Статистика раздачи
Размер:  11,71 GB   |    Скачан:  181 раз
Сидов:  1  [  0 KB/s  ]  
 
 
 
Автор Сообщение

МихаНЕзатор

[] 

Информация о фильме
Название: Анатомия страсти / Анатомия Грей
Оригинальное название: Grey's Anatomy
Год выхода: 2013-2014
Жанр: медицинская драма, мелодрама
Режиссер: Роб Корн, Тони Фелан, Том Верика, Чандра Уилсон

В ролях: Эллен Помпео (Мередит Грей), Кэтрин Хайгл (Иззи Стивенс), Сандра О (Кристина Янг), Джастин Чэмберс (Алекс Карев), Кайлер Ли (Лекси Грей), Патрик Дэмпси (Дерек Шепард), Сара Рамирез (Кэлли Торрес), Эрик Дэйнс (Марк Слоан), Джеймс Пикенс мл. (Шеф Веббер), Чэндра Уилсон (Миранда Бэйли), Кевин МакКидд (Оуэн Хант), Джессика Кэпшоу (Аризона Роббинс) и др.

О фильме: Продолжение знаменитой медицинской драмы о работе и личных отношениях хирургов сиэтлской больницы. Каждый день наполнен болью и счастьем, ссорами и примирениями, сложными дилеммами и необходимостью принять моментальное решение от которого зависит жизнь человека. В центре сюжета хирург - Мередит...


Страна: США
Студия: ABC
Продолжительность: ~ 00:44:00
Перевод: Профессиональный (многоголосый, закадровый) - Fox Life

Файл
Кодек: XviD
Качество: WEB-DLRip
Видео: 720x400 (16:9); ~1350 Kbps; 23.976 fps; 0,195 bpp
Аудио 1: MP3; 48 kHz; 128 Kbps; CBR; 2 ch (русский)
Аудио 2: MP3; 48 kHz; 128 Kbps; CBR; 2 ch (английский)

За звук особая благодарность Alexey17

АНОНСЫ ПОПУЛЯРНЫХ РАЗДАЧ


Торент обновлён, добавлена 24 серия!

01. Клеймо на нашей судьбе / Seal Our Fate
02. Я хочу быть с тобой / I Want You with Me
03. Плач милосердия каждого / Everybody's Crying Mercy
04. Одевающиеся по последней моде / Puttin' on the Ritz
05. Бьюсь об заклад, оно жжется / I Bet It Stung
06. Карта тебя / Map of You
07. Thriller
08. Two Against One
09. Sorry Seems To Be The Hardest Word
10. Somebody That I Used to Know
11. Man on the Moon
12. Get Up, Stand Up
13. Take It Back
14. You’ve Got to Hide Your Love Away
15. Throwing it All Away
16. We Gotta Get Out Of This Place
17. Do You Know?
18. You Be Illin'
19. I'm Winning
20. Go It Alone
21. Change of Heart
22. We Are Never Ever Getting Back Together
23. Everything I Try to Do, Nothing Seems to Turn Out Right
24. Fear (of the Unknown)

- Кэтрин Хайгл — самая молодая в актерском составе «Анатомии страсти» (1-3 сезоны).
- Актриса Сандра О изначально пробовалась на роль доктора Бейли.
- В одном из первых эпизодов Мередит вывешивает объявление для поиска соседей к себе в дом. Данное объявление появляется в кадре всего одну секунду. В одном из требований к предполагаемым соседям указывается, что сторонники Буша не приветствуются.
- Каждая серия сериала называется в честь песен известных исполнителей. Некоторые из них названы в честь песен группы «The Beatles».
- Персонаж Кейт Уолш, Эддисон Шеперд, изначально планировался использоваться в пяти сериях, но значительный интерес и поддержка со стороны фанов привели к тому, что её персонаж оставили в сериале.
- Исайя Вашингтон был вынужден покинуть сериал после 3-го сезона в связи со скандалом, разразившимся на церемонии «Золотой глобус», во время которой выяснилось, что Вашингтон несколько раз оскорбил своего коллегу Т. Р. Найта, указав на его нетрадиционную ориентацию.
- На «Шоу Опры Уинфри» актёр Исайя Вашингтон заявил, что пробовался на роль доктора Шеперда.
- Герой Кевина МакКидда носит хронограф Panerai PAM196.

General
Complete name : D:ВидеоCериалыАнатомия страстиGrey's Anatomy (Season 10) [FOX Life]Greys.Anatomy.s10e01.WEB-DLRip.rus.eng.avi
Format : AVI
Format/Info : Audio Video Interleave
File size : 500 MiB
Duration : 43mn 4s
Overall bit rate : 1 623 Kbps
Writing application : VirtualDubMod 1.5.10.3 | www.virtualdub-fr.org || (build 2550/release)
Writing library : VirtualDubMod build 2550/release

Video
ID : 0
Format : MPEG-4 Visual
Format profile : Advanced Simple@L5
Format settings, BVOP : 2
Format settings, QPel : No
Format settings, GMC : No warppoints
Format settings, Matrix : Default (MPEG)
Codec ID : XVID
Codec ID/Hint : XviD
Duration : 43mn 4s
Bit rate : 1 353 Kbps
Width : 720 pixels
Height : 400 pixels
Display aspect ratio : 16:9
Frame rate : 23.976 fps
Color space : YUV
Chroma subsampling : 4:2:0
Bit depth : 8 bits
Scan type : Progressive
Compression mode : Lossy
Bits/(Pixel*Frame) : 0.196
Stream size : 417 MiB (83%)
Writing library : XviD 73

Audio #1
ID : 1
Format : MPEG Audio
Format version : Version 1
Format profile : Layer 3
Codec ID : 55
Codec ID/Hint : MP3
Duration : 43mn 4s
Bit rate mode : Constant
Bit rate : 128 Kbps
Channel count : 2 channels
Sampling rate : 48.0 KHz
Compression mode : Lossy
Stream size : 39.4 MiB (8%)
Alignment : Aligned on interleaves
Interleave, duration : 42 ms (1.00 video frame)
Interleave, preload duration : 504 ms
Writing library : LAME3.99r
Encoding settings : -m s -V 4 -q 0 -lowpass 17 -b 128

Audio #2
ID : 2
Format : MPEG Audio
Format version : Version 1
Format profile : Layer 3
Codec ID : 55
Codec ID/Hint : MP3
Duration : 43mn 4s
Bit rate mode : Constant
Bit rate : 128 Kbps
Channel count : 2 channels
Sampling rate : 48.0 KHz
Compression mode : Lossy
Stream size : 39.4 MiB (8%)
Alignment : Aligned on interleaves
Interleave, duration : 42 ms (1.00 video frame)
Interleave, preload duration : 504 ms
Writing library : LAME3.99r
Encoding settings : -m s -V 4 -q 0 -lowpass 17 -b 128




Скачать Анатомия.страсти.Grey's.Anatomy.(сезон.10).(Роб.Корн.и.др.).[2013-2014.медицинская.драма.мелодрама.WEB-DLRip].[MVO.(Fox.Life)]+[Eng].torrent без регистрации
Золото ЗОЛОТАЯ РАЗДАЧА! СКАЧАННОЕ НЕ ЗАСЧИТЫВАЕТСЯ! Золото
Дата: Зарегистрирован   [ Тип: внутренний ] Как тут cкачать?
MAGNET ссылка
MAGNET ссылка


Скачать .torrent

32 KB

Статус: проверено DHT
Скачан: торрент - 181 раз, раздача полностью - 27 раз
Размер: 11,71 GB
Оценка:  - (Голосов: 0)
Поблагодарили: 1
Поделиться ссылкой на эту раздачу с друзьями:
В контактеFacebookОдноклассникиTwitterLivejournalМой МирLiveinternet
 

 

МихаНЕзатор

[] 

Раздача обновлена
 
Показать сообщения:    


Вы не можете начинать темы
Вы не можете отвечать на сообщения
Вы не можете редактировать свои сообщения
Вы не можете удалять свои сообщения
Вы не можете голосовать в опросах
Вы не можете прикреплять файлы к сообщениям
Вы можете скачивать файлы