Loading...
Error

Скачать Джек / Jack (Фрэнсис Форд Коппола / Francis Ford Coppola) [1996 г., Комедия, драма, HDTVRip] [MVO] торрент без регистрации

 
Статистика раздачи
Размер:  1,46 GB   |    Скачан:  112 раз
Сидов:  1  [  0 KB/s  ]  
 
Автор Сообщение

leon030982

[] 

Джек / Jack
Год выпуска: 1996
Страна: США
Жанр: Комедия, драма
Продолжительность: 01:48:31
Перевод: Профессиональный (многоголосый, закадровый)
Русские субтитры: нет

Режиссер: Фрэнсис Форд Коппола / Francis Ford Coppola

В ролях: Робин Уильямс, Дайан Лэйн, Брайан Кервин, Дженнифер Лопес, Билл Козби

Описание: Джеку десять лет. Как и все дети его возраста, он ходит в школу и пытается завести друзей.
Но за парту Джек не помещается, да и сверстники все время смеются над ним. А все дело в том, что он растет намного быстрее и выглядит в четыре раза старше. Виной тому необычное заболевание, ускорившее рост мальчика и к десяти годам превратившее его во взрослого мужчину. Но только внешне - в душе Джек все равно остается ребенком.

Семпл: http://multi-up.com/915323

Качество: HDTVRip (исходник - HDTV 1080i, от , отдельное спасибоlizing48за звук)
Формат: AVI
Видео кодек: XviD
Аудио кодек: AC3
Видео: XviD ISO MPEG-4; 720x384 (1.88:1); 25 Fr/s; 1664 kbps avg; 0.24 bits/pics-fr
Аудио: AC3 Dolby Digital 48000Hz 256 kb/s,2/0 (L,R) ch

Код:

Общее
Полное имя                       : Dzhek.1996.XviD.HDTVRip.RusMVO.MetionInka.avi
Формат                           : AVI
Формат/Информация                : Audio Video Interleave
Размер файла                     : 1,46 Гбайт
Продолжительность                : 1 ч. 48 м.
Общий поток                      : 1931 Кбит/сек
Название фильма                  : Dzhek.1996.XviD.HDTVRip.RusMVO.MetionInka
Режиссёр                         : rip by MetionInka
Жанр                             : Comedy/Drama
Программа кодирования            : VirtualDubMod 1.5.10.3 | www.virtualdub-fr.org || (build 2550/release)
Формат оригинала/Имя             : Jack / Francis Ford Coppola
Правообладатель                  : rutracker.org
Примечание                       : Rus MVO
Видео
Идентификатор                    : 0
Формат                           : MPEG-4 Visual
Профиль формата                  : Advanced Simple@L5
Параметр BVOP формата            : 2
Параметр QPel формата            : Нет
Параметр GMC формата             : Без точки перехода
Параметр матрицы формата         : Выборочная
Идентификатор кодека             : XVID
Идентификатор кодека/Подсказка   : XviD
Продолжительность                : 1 ч. 48 м.
Битрейт                          : 1665 Кбит/сек
Ширина                           : 720 пикселей
Высота                           : 384 пикселя
Соотношение сторон               : 1,875
Частота кадров                   : 25,000 кадров/сек
Цветовое пространство            : YUV
Субдискретизация насыщенности    : 4:2:0
Битовая глубина                  : 8 бит
Тип развёртки                    : Прогрессивная
Метод сжатия                     : С потерями
Бит/(Пиксели*Кадры)              : 0.241
Размер потока                    : 1,26 Гбайт (86%)
Библиотека кодирования           : XviD 73
Аудио
Идентификатор                    : 1
Формат                           : AC-3
Формат/Информация                : Audio Coding 3
Расширение режима                : CM (complete main)
Идентификатор кодека             : 2000
Продолжительность                : 1 ч. 48 м.
Вид битрейта                     : Постоянный
Битрейт                          : 256 Кбит/сек
Каналы                           : 2 канала
Расположение каналов             : Front: L R
Частота                          : 48,0 КГц
Битовая глубина                  : 16 бит
Метод сжатия                     : С потерями
Размер потока                    : 199 Мбайт (13%)
Выравнивание                     : Разделение по промежуткам
Продолжительность промежутка     : 40  мс. (1,00 видеокадр)
Время предзагрузки промежутка    : 500  мс.



Скачать Джек.Jack.(Фрэнсис.Форд.Коппола.Francis.Ford.Coppola).[1996.г.Комедия.драма.HDTVRip].[MVO].torrent без регистрации
Золото ЗОЛОТАЯ РАЗДАЧА! СКАЧАННОЕ НЕ ЗАСЧИТЫВАЕТСЯ! Золото
Дата: Зарегистрирован   [ Тип: внутренний ] Как тут cкачать?
MAGNET ссылка
MAGNET ссылка


Скачать .torrent

15 KB

Статус: проверено DHT
Скачан: торрент - 112 раз, раздача полностью - 21 раз
Размер: 1,46 GB
Оценка:  5 (Голосов: 1)
Поблагодарили: 2
Поделиться ссылкой на эту раздачу с друзьями:
В контактеFacebookОдноклассникиTwitterLivejournalМой МирLiveinternet
 

 
Показать сообщения:    


Вы не можете начинать темы
Вы не можете отвечать на сообщения
Вы не можете редактировать свои сообщения
Вы не можете удалять свои сообщения
Вы не можете голосовать в опросах
Вы не можете прикреплять файлы к сообщениям
Вы можете скачивать файлы