Loading...
Error

Скачать Удачное наследство / Hot to Trot (Майкл Диннер / Michael Dinner) [1988, фэнтези, комедия, DVDRip-AVC] [DVO] + [AVO] (Андрей Гаврилов) торрент без регистрации

 
Статистика раздачи
Размер:  1,45 GB   |    Скачан:  121 раз
Сидов:  1  [  0 KB/s  ]  
 
Автор Сообщение

leon030982

[] 

Удачное наследство / Hot to Trot


Год выпуска: 1988
Страна: США
Жанр: фэнтези, комедия
Продолжительность: 01:23:10
Перевод 1: Профессиональный (двухголосный, закадровый) [СТС]
Перевод 2: Авторский (одноголосный, закадровый) [Андрей Гаврилов]
Оригинальная дорожка: английский
Cубтитры: нет

Режиссер: Майкл Диннер / Michael Dinner

В ролях: Боб Голдтуэйт, Дэбни Коулмен, Джон Кэнди, Вирджиния Мэдсен, Синди Пикетт, Джим Метцлер, Тим Казурински, Сантос Моралес, Барбара Уиннери, Гарри Клюгер

Описание: Посредственный брокер Фред Чэни получает счастливое наследство — коня по кличке Дон. Что за умница этот Дон! Он и говорить умеет, и читать, и сидеть, и пить кока-колу из соломинки. Такого толкового жеребца даже в цирке не сыщешь.
Но это еще не всё — Дон умеет играть на бирже, он прирожденный брокер! Работая в одной упряжке на рынке ценных бумаг, конь и его хозяин зарабатывают все деньги Чикаго. И на яблоки хватит коню, и на конфеты для любимой девушки Фреда. Вот что значит, поставить на счастливую лошадку!




Качество видео: DVDRip-AVC
Формат видео: MKV
Видео кодек: h.264
Аудио кодек: AC3
Видео: 720x480 (16:9) @ 854x480, 23.976 fps, AVC, ~1920 Kbps, 0.232 bits/pixel
Аудио 1: Russian, 48.0 KHz, AC3, 2 ch, 192 Kbps [СТС]
Аудио 2: Russian, 48.0 KHz, AC3, 2 ch, 192 Kbps [Андрей Гаврилов]
Аудио 3: English, 48.0 KHz, AC3, 2 ch, 192 Kbps [оригинал]
x264.exe: --pass 2 --bitrate 1920 --preset medium --ref 9 --deblock -1:-1 --merange 32 --bframes 10 --direct auto --b-adapt 2 --trellis 2 --no-fast-pskip --psy-rd 1.00:0.10 --partitions all --subme 9 --me umh --rc-lookahead 50 --stats "D:\HOT TO TROT 1988_T01.log" --sar 32:27 --output "D:\HOT TO TROT 1988_T01.mp4" "D:\Temp\0279.avs"
avs [info]: 720x480p 32:27 @ 24000/1001 fps (cfr)
x264 [info]: using SAR=32/27
x264 [info]: using cpu capabilities: MMX2 SSE2Fast SSEMisalign LZCNT
x264 [info]: profile High, level 3.1
x264 [info]: frame I:947 Avg QP:18.14 size: 57135
x264 [info]: frame P:26605 Avg QP:20.71 size: 22163
x264 [info]: frame B:92093 Avg QP:23.06 size: 6009
x264 [info]: consecutive B-frames: 2.3% 3.4% 9.0% 17.8% 19.4% 38.9% 7.2% 0.9% 0.7% 0.2% 0.5%
x264 [info]: mb I I16..4: 4.5% 89.1% 6.4%
x264 [info]: mb P I16..4: 1.2% 22.7% 1.1% P16..4: 38.3% 17.6% 13.9% 0.4% 0.1% skip: 4.6%
x264 [info]: mb B I16..4: 0.1% 3.8% 0.1% B16..8: 42.5% 8.2% 2.0% direct: 8.1% skip:35.1% L0:41.5% L1:37.5% BI:21.1%
x264 [info]: 8x8 transform intra:91.6% inter:73.7%
x264 [info]: direct mvs spatial:97.5% temporal:2.5%
x264 [info]: coded y,uvDC,uvAC intra: 91.2% 86.8% 43.8% inter: 27.5% 40.6% 4.2%
x264 [info]: i16 v,h,dc,p: 35% 15% 13% 38%
x264 [info]: i8 v,h,dc,ddl,ddr,vr,hd,vl,hu: 15% 11% 25% 7% 8% 9% 7% 9% 9%
x264 [info]: i4 v,h,dc,ddl,ddr,vr,hd,vl,hu: 18% 9% 4% 8% 14% 16% 12% 11% 9%
x264 [info]: i8c dc,h,v,p: 39% 25% 23% 14%
x264 [info]: Weighted P-Frames: Y:6.3% UV:2.9%
x264 [info]: ref P L0: 35.1% 12.1% 22.7% 6.3% 7.9% 4.2% 5.4% 2.4% 3.4% 0.6% 0.0%
x264 [info]: ref B L0: 72.9% 14.4% 4.6% 2.8% 1.9% 1.9% 1.0% 0.4%
x264 [info]: ref B L1: 94.2% 5.8%
x264 [info]: kb/s:1919.21
General
Unique ID : 228901289304221946132215039285810020925 (0xAC34C8E496AC1C83B11D2E460B45C23D)
Complete name : D:\Hot to Trot.mkv
Format : Matroska
Format version : Version 4 / Version 2
File size : 1.45 GiB
Duration : 1h 23mn
Overall bit rate : 2 497 Kbps
Encoded date : UTC 2013-10-24 18:42:14
Writing application : mkvmerge v6.5.0 ('Isn't she lovely') built on Oct 20 2013 12:50:05
Writing library : libebml v1.3.0 + libmatroska v1.4.1
Video
ID : 1
Format : AVC
Format/Info : Advanced Video Codec
Format profile : High@L3.1
Format settings, CABAC : Yes
Format settings, ReFrames : 9 frames
Codec ID : V_MPEG4/ISO/AVC
Duration : 1h 23mn
Bit rate : 1 920 Kbps
Width : 720 pixels
Height : 480 pixels
Display aspect ratio : 16:9
Frame rate mode : Constant
Frame rate : 23.976 fps
Standard : NTSC
Color space : YUV
Chroma subsampling : 4:2:0
Bit depth : 8 bits
Scan type : Progressive
Bits/(Pixel*Frame) : 0.232
Stream size : 1.09 GiB (75%)
Writing library : x264 core 133 r2334 a3ac64b
Encoding settings : cabac=1 / ref=9 / deblock=1:-1:-1 / analyse=0x3:0x133 / me=umh / subme=9 / psy=1 / psy_rd=1.00:0.10 / mixed_ref=1 / me_range=32 / chroma_me=1 / trellis=2 / 8x8dct=1 / cqm=0 / deadzone=21,11 / fast_pskip=0 / chroma_qp_offset=-3 / threads=6 / lookahead_threads=1 / sliced_threads=0 / nr=0 / decimate=1 / interlaced=0 / bluray_compat=0 / constrained_intra=0 / bframes=10 / b_pyramid=2 / b_adapt=2 / b_bias=0 / direct=3 / weightb=1 / open_gop=0 / weightp=2 / keyint=250 / keyint_min=23 / scenecut=40 / intra_refresh=0 / rc_lookahead=50 / rc=2pass / mbtree=1 / bitrate=1920 / ratetol=1.0 / qcomp=0.60 / qpmin=0 / qpmax=69 / qpstep=4 / cplxblur=20.0 / qblur=0.5 / ip_ratio=1.40 / aq=1:1.00
Default : Yes
Forced : No
Audio #1
ID : 2
Format : AC-3
Format/Info : Audio Coding 3
Mode extension : CM (complete main)
Format settings, Endianness : Big
Codec ID : A_AC3
Duration : 1h 23mn
Bit rate mode : Constant
Bit rate : 192 Kbps
Channel count : 2 channels
Channel positions : Front: L R
Sampling rate : 48.0 KHz
Bit depth : 16 bits
Compression mode : Lossy
Stream size : 114 MiB (8%)
Title : DVO СТС
Language : Russian
Default : Yes
Forced : No
Audio #2
ID : 3
Format : AC-3
Format/Info : Audio Coding 3
Mode extension : CM (complete main)
Format settings, Endianness : Big
Codec ID : A_AC3
Duration : 1h 23mn
Bit rate mode : Constant
Bit rate : 192 Kbps
Channel count : 2 channels
Channel positions : Front: L R
Sampling rate : 48.0 KHz
Bit depth : 16 bits
Compression mode : Lossy
Stream size : 114 MiB (8%)
Title : AVO Андрей Гаврилов
Language : Russian
Default : No
Forced : No
Audio #3
ID : 4
Format : AC-3
Format/Info : Audio Coding 3
Mode extension : CM (complete main)
Format settings, Endianness : Big
Codec ID : A_AC3
Duration : 1h 23mn
Bit rate mode : Constant
Bit rate : 192 Kbps
Channel count : 2 channels
Channel positions : Front: L R
Sampling rate : 48.0 KHz
Bit depth : 16 bits
Compression mode : Lossy
Stream size : 114 MiB (8%)
Language : English
Default : No
Forced : No
Menu
00:00:00.000 : :Chapter 01
00:10:00.500 : :Chapter 02
00:20:00.000 : :Chapter 03
00:30:00.167 : :Chapter 04
00:40:00.667 : :Chapter 05
00:50:00.167 : :Chapter 06
01:00:00.167 : :Chapter 07
01:09:59.667 : :Chapter 08
01:20:00.167 : :Chapter 09



Скачать Удачное.наследство.Hot.to.Trot.(Майкл.Диннер.Michael.Dinner).[1988.фэнтези.комедия.DVDRip-AVC].[DVO].+.[AVO].(Андрей.Гаврилов).torrent без регистрации
Золото ЗОЛОТАЯ РАЗДАЧА! СКАЧАННОЕ НЕ ЗАСЧИТЫВАЕТСЯ! Золото
Дата: Зарегистрирован   [ Тип: внутренний ] Как тут cкачать?
MAGNET ссылка
MAGNET ссылка


Скачать .torrent

15 KB

Статус: проверено DHT
Скачан: торрент - 121 раз, раздача полностью - 2 раз
Размер: 1,45 GB
Оценка:  5 (Голосов: 1)
Поблагодарили: 2
Поделиться ссылкой на эту раздачу с друзьями:
В контактеFacebookОдноклассникиTwitterLivejournalМой МирLiveinternet
 

 
Показать сообщения:    


Вы не можете начинать темы
Вы не можете отвечать на сообщения
Вы не можете редактировать свои сообщения
Вы не можете удалять свои сообщения
Вы не можете голосовать в опросах
Вы не можете прикреплять файлы к сообщениям
Вы можете скачивать файлы