Loading...
Error

Скачать Подручный Хадсакера / The Hudsucker Proxy (Джоэл Коэн / Joel Coen, Итан Коэн / Ethan Coen) [1994, Комедия, фэнтези, HDRip] 3x[AVO] (В.Горчаков, Ю.Живов, А.Пронин ) торрент без регистрации

 
Статистика раздачи
Размер:  2,19 GB   |    Скачан:  104 раза
Сидов:  1  [  0 KB/s  ]  
 
Автор Сообщение

leon030982

[] 

Подручный Хадсакера / The Hudsucker Proxy


Год выпуска: 1994
Страна: США, Германия, Великобритания
Жанр: Комедия
Продолжительность: 01:50:44
Перевод #1: Авторский (одноголосый, закадровый) [В.Горчаков]
Перевод #2: Авторский (одноголосый, закадровый) [Ю.Живов]
Перевод #3: Авторский (одноголосый, закадровый) [А.Пронин]
Cубтитры: отсутствуют

Режиссер: Джоэл Коэн / Joel Coen, Итан Коэн / Ethan Coen
В ролях: Тим Роббинс /Tim Robbins/, Дженнифер Джейсон Ли /Jennifer Jason Leigh/, Пол Ньюман /Paul Newman/, Чарльз Дернинг /Charles Durning/, Джон Махони /John Mahoney/, Джим Тру-Фрост /Jim True-Frost/, Jim True-Frost /Bill Cobbs/, Брюс Кэмпбелл /Bruce Campbell/, Гарри Бьюджин /Harry Bugin/, Джон Сэйтц /John Seitz

Описание: Безработный паренек из провинции оказывается в самом центре страны -- Нью-Йорке -- в поисках работы. Благодаря счастливому стечению обстоятельств, его зачисляют в число клерков одной из крупнейших компаний. С этого момента новоиспеченному клерку начинает везти. В результате чиновничьих интриг парень из провинции оказывается председателем компании, и этот поворот судьбы резко меняет его жизнь. Но слава и деньги, о которых когда-то мечтал наш герой, могут не только возвеличить, но и порядком испортить его жизнь...



Качество видео: HDRip
Формат видео: AVI
Видео кодек: XviD
Аудио кодек: AC3
Видео: 704x400, 23.976 fps, ~1721 kbps, 0.25 bit/pixel
Аудио #1: Dolby AC3 / 5.1 / 48 kHz / 448 kbps ( В.Горчаков )
Аудио #2: Dolby AC3 / 5.1 / 48 kHz / 448 kbps ( Ю.Живов )
Аудио #3: Dolby AC3 / 2.0 / 48 kHz / 192 kbps ( А.Пронин )
Видео
Идентификатор : 0
Формат : MPEG-4 Visual
Профиль формата : Advanced Simple@L5
Параметр BVOP формата : 1
Параметр QPel формата : Нет
Параметр GMC формата : Без точки перехода
Параметр матрицы формата : Выборочная
Идентификатор кодека : XVID
Идентификатор кодека/Подсказка : XviD
Продолжительность : 1 ч. 50 м.
Битрейт : 1721 Кбит/сек
Ширина : 704 пикселя
Высота : 400 пикселей
Соотношение сторон : 16:9
Частота кадров : 23,976 кадра/сек
Цветовое пространство : YUV
Субдискретизация насыщенности : 4:2:0
Битовая глубина : 8 бит
Тип развёртки : Прогрессивная
Метод сжатия : С потерями
Бит/(Пиксели*Кадры) : 0.255
Размер потока : 1,33 Гбайт (61%)
Библиотека кодирования : XviD 73

Аудио #1
Идентификатор : 1
Формат : AC-3
Формат/Информация : Audio Coding 3
Расширение режима : CM (complete main)
Идентификатор кодека : 2000
Продолжительность : 1 ч. 50 м.
Вид битрейта : Постоянный
Битрейт : 448 Кбит/сек
Каналы : 6 каналов
Расположение каналов : Front: L C R, Side: L R, LFE
Частота : 48,0 КГц
Битовая глубина : 16 бит
Метод сжатия : С потерями
Размер потока : 355 Мбайт (16%)
Выравнивание : Разделение по промежуткам
Продолжительность промежутка : 42 мс. (1,00 видеокадр)
Заголовок : AVO ( В.Горчаков )

Аудио #2
Идентификатор : 2
Формат : AC-3
Формат/Информация : Audio Coding 3
Расширение режима : CM (complete main)
Идентификатор кодека : 2000
Продолжительность : 1 ч. 50 м.
Вид битрейта : Постоянный
Битрейт : 448 Кбит/сек
Каналы : 6 каналов
Расположение каналов : Front: L C R, Side: L R, LFE
Частота : 48,0 КГц
Битовая глубина : 16 бит
Метод сжатия : С потерями
Размер потока : 355 Мбайт (16%)
Выравнивание : Разделение по промежуткам
Продолжительность промежутка : 42 мс. (1,00 видеокадр)
Заголовок : AVO ( Ю.Живов )

Аудио #3
Идентификатор : 3
Формат : AC-3
Формат/Информация : Audio Coding 3
Расширение режима : CM (complete main)
Идентификатор кодека : 2000
Продолжительность : 1 ч. 50 м.
Вид битрейта : Постоянный
Битрейт : 192 Кбит/сек
Каналы : 2 канала
Расположение каналов : Front: L R
Частота : 48,0 КГц
Битовая глубина : 16 бит
Метод сжатия : С потерями
Размер потока : 152 Мбайт (7%)
Выравнивание : Разделение по промежуткам
Продолжительность промежутка : 42 мс. (1,00 видеокадр)
Заголовок : AVO ( А.Пронин )



Скачать Подручный.Хадсакера.The.Hudsucker.Proxy.(Джоэл.Коэн.Joel.Coen.Итан.Коэн.Ethan.Coen).[1994.Комедия.фэнтези.HDRip].3x[AVO].(В.Горчаков.Ю.Живов.А.Пронин.).torrent без регистрации
Золото ЗОЛОТАЯ РАЗДАЧА! СКАЧАННОЕ НЕ ЗАСЧИТЫВАЕТСЯ! Золото
Дата: Зарегистрирован   [ Тип: внутренний ] Как тут cкачать?
MAGNET ссылка
MAGNET ссылка


Скачать .torrent

11 KB

Статус: проверено DHT
Скачан: торрент - 104 раз, раздача полностью - 5 раз
Размер: 2,19 GB
Оценка:  5 (Голосов: 1)
Поблагодарили: 1
Поделиться ссылкой на эту раздачу с друзьями:
В контактеFacebookОдноклассникиTwitterLivejournalМой МирLiveinternet
 

 
Показать сообщения:    


Вы не можете начинать темы
Вы не можете отвечать на сообщения
Вы не можете редактировать свои сообщения
Вы не можете удалять свои сообщения
Вы не можете голосовать в опросах
Вы не можете прикреплять файлы к сообщениям
Вы можете скачивать файлы