Loading...
Error

Скачать Ярмарка тщеславия / Vanity Fair (сезон 01) (Марк Манден) [1998, драма, мелодрама, DVDRip] [MVO] торрент без регистрации

 
Статистика раздачи
Размер:  3,67 GB   |    Скачан:  135 раз
Сидов:  1  [  0 KB/s  ]  
 
Автор Сообщение

МихаНЕзатор

[] 

Информация о фильме
Название: Ярмарка тщеславия
Оригинальное название: Vanity Fair
Год выхода: 1998
Жанр: драма, мелодрама
Режиссер: Марк Манден

В ролях: Наташа Литтл Фрэнсис Грей Дэвид Росс Филип Гленистер Мишель Дотрис Джанин Дувицкий Энтон Лессер Натаниель Паркер Джереми Свифт Том Уорд

О фильме:
Красивая, умная и обаятельная Бекки Шарп бывшая гувернантка. Она непревзойденная искусительница и карьеристка. Бекки готова пойти на любые уловки и разбить несчетное количество мужских сердец, чтобы заполучить богатого и знатного мужа.

Вся ее бурная и полная приключений жизнь посвящена одной цели поискам влиятельного покровителя. А ее кроткая подруга Амелия преданно любит ветреного офицера Джорджа Осборна, хотя по ней тайно страдает его верный друг капитан Доббин. Смогут ли подруги пережить все превратности любви, уготованные им судьбой?


Страна: Великобритания, США
Студия: A&E Television Networks, BBC
Продолжительность: 05:05:00
Перевод: Профессиональный (многоголосый, закадровый)

Файл
Кодек: DivX / MP3
Качество: DVDRip
Видео: DivX, 640x480, ~1500 Кбит/сек, 25,000 кадр/сек
Звук: MP3, 2 ch, 160 KBps
Общее
Полное имя : F:KINOvanity_fair_1998_vanity_fair_1998_part2.avi
Формат : AVI
Формат/Информация : Audio Video Interleave
Размер файла : 1,78 Гбайт
Продолжительность : 2 ч. 34 м.
Общий поток : 1658 Кбит/сек
Библиотека кодирования : VirtualDub build 28191/release

Видео
Идентификатор : 0
Формат : MPEG-4 Visual
Параметр BVOP формата : 1
Параметр QPel формата : Нет
Параметр GMC формата : Без точки перехода
Параметр матрицы формата : Default (H.263)
Режим смешивания : Сжатый битовый поток
Идентификатор кодека : DX50
Идентификатор кодека/Подсказка : DivX 5
Продолжительность : 2 ч. 34 м.
Битрейт : 1488 Кбит/сек
Ширина : 640 пикс.
Высота : 480 пикс.
Соотношение сторон : 4:3
Частота кадров : 25,000 кадр/сек
Цветовое пространство : YUV
Подвыборка цветности : 4:2:0
Битовая глубина : 8 бит
Тип развёртки : Прогрессивная
Метод сжатия : С потерями
Бит/(Пиксели*Кадры) : 0.194
Размер потока : 1,60 Гбайт (90%)
Библиотека кодирования : DivX 6.2.5 (UTC 2006-07)

Аудио
Идентификатор : 1
Формат : MPEG Audio
Версия формата : Version 1
Профиль формата : Layer 3
Идентификатор кодека : 55
Идентификатор кодека/Подсказка : MP3
Продолжительность : 2 ч. 33 м.
Вид битрейта : Постоянный
Битрейт : 160 Кбит/сек
Каналы : 2 канала
Частота : 48,0 КГц
Метод сжатия : С потерями
Задержка видео : 160 мс.
Размер потока : 176 Мбайт (10%)
Выравнивание : Разделение по промежуткам
Продолжительность промежутка : 40 мс. (1,00 видеокадр)
Время предзагрузки промежутка : 500 ms



Скачать Ярмарка.тщеславия.Vanity.Fair.(сезон.01).(Марк.Манден).[1998.драма.мелодрама.DVDRip].[MVO].torrent без регистрации
Золото ЗОЛОТАЯ РАЗДАЧА! СКАЧАННОЕ НЕ ЗАСЧИТЫВАЕТСЯ! Золото
Дата: Зарегистрирован   [ Тип: внутренний ] Как тут cкачать?
MAGNET ссылка
MAGNET ссылка


Скачать .torrent

19 KB

Статус: проверено DHT
Скачан: торрент - 135 раз, раздача полностью - 196 раз
Размер: 3,67 GB
Оценка:  - (Голосов: 0)
Поблагодарили: 0
Поделиться ссылкой на эту раздачу с друзьями:
В контактеFacebookОдноклассникиTwitterLivejournalМой МирLiveinternet
 

 
Показать сообщения:    


Вы не можете начинать темы
Вы не можете отвечать на сообщения
Вы не можете редактировать свои сообщения
Вы не можете удалять свои сообщения
Вы не можете голосовать в опросах
Вы не можете прикреплять файлы к сообщениям
Вы можете скачивать файлы