Loading...
Error

Скачать Побег из Шоушенка / The Shawshank Redemption (Фрэнк Дарабонт / Frank Darabont) [1994, драма, триллер, BDRip] [MVO] (СТС) торрент без регистрации

 
Статистика раздачи
Размер:  2,18 GB   |    Скачан:  211 раз
Сидов:  1  [  0 KB/s  ]  
 
Автор Сообщение

leon030982

[] 

Побег из Шоушенка / The Shawshank Redemption


Год выпуска: 1994
Страна: США
Жанр: драма, триллер
Продолжительность: 02:22:33
Перевод: Профессиональный (многоголосый, закадровый) [СТС]
Cубтитры: нет
Оригинальная аудиодорожка: английский
Режиссер: Фрэнк Дарабонт / Frank Darabont
В ролях: Тим Роббинс, Уильям Сэдлер, Морган Фриман, Боб Гантон, Клэнси Браун, Гил Беллоуз, Марк Болстон, Джеффри Де Манн, Ларри Бранденбург, Брайан Либби, Нил Гинтоли, Джеймс Уитмор, Пол МакКрэйн, Джозеф Раньо, Джуд Чикколелла, Дэвид Прувэл
Описание: Энди Дюфрейн, вице-президент солидного банка, приговаривается к двум пожизненным заключениям по обвинению в убийстве жены и ее любовника. Он отбывает заключение в тюрьме Шоушенк, где проходит все круги ада, проявляя недюжинное мужество, упорство и хладнокровие.



Качество видео: BDRip
Формат видео: AVI
Видео кодек: XviD
Аудио кодек: AC3
Видео: 704x400 (1.76:1), 23.976 fps, XviD build 50 ~1801 kbps avg, 0.27 bit/pixel
Аудио #1: 48.0 KHz, AC3, 2 channels (L, R) ~ 192 kbps (СТС)
Аудио #2: 48.0 KHz, AC3, 2 channels (L, R) ~ 192 kbps (Оригинал)
скачать отдельно на яндекс --- 48.0 KHz, AC3, 6 ch ~ 448 kbps [А.Гаврилов]
За видео благодарим polkera, за дорожку СТС - ssdd-vrn, за реставрацию и синхронизацию дороги - xxllxx
General
Complete name : D:\Побег из Шоушенка (СТС + Оригинал).avi
Format : AVI
Format/Info : Audio Video Interleave
Format profile : OpenDML
File size : 2.18 GiB
Duration : 2h 22mn
Overall bit rate : 2 193 Kbps
Writing application : VirtualDubMod 1.5.10.2 (build 2540/release)
Writing library : VirtualDubMod build 2540/release
Video
ID : 0
Format : MPEG-4 Visual
Format profile : Advanced Simple@L5
Format settings, BVOP : 2
Format settings, QPel : No
Format settings, GMC : No warppoints
Format settings, Matrix : Custom
Codec ID : XVID
Codec ID/Hint : XviD
Duration : 2h 22mn
Bit rate : 1 791 Kbps
Width : 704 pixels
Height : 400 pixels
Display aspect ratio : 16:9
Frame rate : 23.976 fps
Color space : YUV
Chroma subsampling : 4:2:0
Bit depth : 8 bits
Scan type : Progressive
Compression mode : Lossy
Bits/(Pixel*Frame) : 0.265
Stream size : 1.78 GiB (82%)
Writing library : XviD 1.2.1 (UTC 2008-12-04)
Audio #1
ID : 1
Format : AC-3
Format/Info : Audio Coding 3
Mode extension : CM (complete main)
Codec ID : 2000
Duration : 2h 22mn
Bit rate mode : Constant
Bit rate : 192 Kbps
Channel(s) : 2 channels
Channel positions : Front: L R
Sampling rate : 48.0 KHz
Bit depth : 16 bits
Compression mode : Lossy
Stream size : 196 MiB (9%)
Alignment : Split accross interleaves
Interleave, duration : 42 ms (1.00 video frame)
Interleave, preload duration : 500 ms
Audio #2
ID : 2
Format : AC-3
Format/Info : Audio Coding 3
Mode extension : CM (complete main)
Codec ID : 2000
Duration : 2h 22mn
Bit rate mode : Constant
Bit rate : 192 Kbps
Channel(s) : 2 channels
Channel positions : Front: L R
Sampling rate : 48.0 KHz
Bit depth : 16 bits
Compression mode : Lossy
Stream size : 196 MiB (9%)
Alignment : Split accross interleaves
Interleave, duration : 42 ms (1.00 video frame)
Interleave, preload duration : 500 ms



Скачать Побег.из.Шоушенка.The.Shawshank.Redemption.(Фрэнк.Дарабонт.Frank.Darabont).[1994.драма.триллер.BDRip].[MVO].(СТС).torrent без регистрации
Золото ЗОЛОТАЯ РАЗДАЧА! СКАЧАННОЕ НЕ ЗАСЧИТЫВАЕТСЯ! Золото
Дата: Зарегистрирован   [ Тип: внутренний ] Как тут cкачать?
MAGNET ссылка
MAGNET ссылка


Скачать .torrent

12 KB

Статус: проверено DHT
Скачан: торрент - 211 раз, раздача полностью - 373 раз
Размер: 2,18 GB
Оценка:  5 (Голосов: 3)
Поблагодарили: 4
Поделиться ссылкой на эту раздачу с друзьями:
В контактеFacebookОдноклассникиTwitterLivejournalМой МирLiveinternet
 

 
Показать сообщения:    


Вы не можете начинать темы
Вы не можете отвечать на сообщения
Вы не можете редактировать свои сообщения
Вы не можете удалять свои сообщения
Вы не можете голосовать в опросах
Вы не можете прикреплять файлы к сообщениям
Вы можете скачивать файлы