Loading...
Error

Скачать Иствикские ведьмы / The Witches of Eastwick (Джордж Миллер) [1987, ужасы, триллер, фэнтези, комедия, музыка, BDRip-AVC] [Dub]+[MVO]x2+[AVO]x3+[Оригинал]+[Sub] торрент без регистрации

 
Статистика раздачи
Размер:  4,97 GB   |    Скачан:  95 раз
Сидов:  1  [  0 KB/s  ]  
 
Автор Сообщение

Marsianka

[] 

Информация о фильме
Название: Иствикские ведьмы
Оригинальное название: The Witches of Eastwick
Год выхода: 1987
Жанр: ужасы, триллер, фэнтези, комедия, музыка
Режиссер: Джордж Миллер
В ролях: Джек Николсон, Шер, Сьюзен Сарандон, Мишель Пфайффер, Вероника Картрайт, Ричард Дженкинс, Кит Джоким, Карел Стрёйкен, Хелен Ллойд Брид, Кэролин Струзик, Хезер Коулмэн, Крэйг Беркет, Рут Мэйнард, Кэрол Ита Уайт, Джейн А. Джонстон, Харриет Медин, Марго Дайонн, Джеймс Бойл, Джон Блад, Рон Кэмпбелл, Юджин Боулс, Кейт Бэррет, Энтони Фалько, Тара Халфпенни, Мелани Хьюит, Мэтт Кэйн, Энн Линдгрен, Джессика Макдональд

О фильме:
Три современные ведьмы тоскуют по своему идеальному мужчине в маленьком городке Новой Англии. Неужели появление богатого и неотразимого Дэрила Ван Хорна просто совпадение или, сработало непреднамеренное женское колдовство?



Страна: США
Студия: Warner Bros. Pictures, Guber-Peters Company, Kennedy Miller Productions
Продолжительность: 01:58:01
Перевод: Дублированный + профессиональный многоголосый + авторский одноголосый (А. Михалев), (Ю. Живов), (В. Горчаков) + украинский + оригинал

Файл
Кодек: MPEG-4 AVC
Качество: BDRip-AVC
Видео: 3400 Кбит/с, 1024х426, 23.976 кадр/с
Аудио #1: Русский (AC3, 6 ch, 448 Кбит/с) / Дублированный
Аудио #2: Русский (AC3, 2 ch, 192 Кбит/с) / Профессиональный многоголосый (телеканал "Россия")
Аудио #3: Русский (AC3, 6 ch, 448 Кбит/с) / Авторский одноголосый (А. Михалев)
Аудио #4: Русский (AC3, 6 ch, 448 Кбит/с) / Авторский одноголосый (Ю. Живов)
Аудио #5: Русский (AC3, 2 ch, 256 Кбит/с) / Авторский одноголосый (В. Горчаков)
Аудио #6: Украинский (AC3, 6 ch, 384 Кбит/с) / Профессиональный многоголосый (Novy)
Аудио #7: Английский (AC3, 6 ch, 448 Кбит/с)
Субтитры: Русские, английские (SDH)
Семпл
Общее
Уникальный идентификатор : 199724269186407339943660664563386226878 (0x96417EBC8F5636B7A0BE5A9FB68F18BE)
Полное имя : D:2Films DРелизыIstvikskie.vedmy.1987.x264.BDRip.AVC.MediaClub.mkv
Формат : Matroska
Версия формата : Version 2
Размер файла : 4,97 Гбайт
Продолжительность : 1 ч. 58 м.
Общий поток : 6028 Кбит/сек
Название фильма : = MediaClub = rip by Lefevr
Дата кодирования : UTC 2013-11-10 06:18:53
Программа кодирования : mkvmerge v5.4.0 ('Piper') built on Mar 10 2012 13:34:39
Библиотека кодирования : libebml v1.2.3 + libmatroska v1.3.0

Видео
Идентификатор : 1
Формат : AVC
Формат/Информация : Advanced Video Codec
Профиль формата : High@L4.1
Параметр CABAC формата : Да
Параметр ReFrames формата : 9 кадров
Идентификатор кодека : V_MPEG4/ISO/AVC
Продолжительность : 1 ч. 58 м.
Битрейт : 3400 Кбит/сек
Ширина : 1024 пикселя
Высота : 426 пикселей
Соотношение сторон : 2,40:1
Режим частоты кадров : Постоянный
Частота кадров : 23,976 кадра/сек
Цветовое пространство : YUV
Субдискретизация насыщенности : 4:2:0
Битовая глубина : 8 бит
Тип развёртки : Прогрессивная
Бит/(Пиксели*Кадры) : 0.325
Размер потока : 2,71 Гбайт (54%)
Заголовок : Istvikskie.vedmy.1987.x264.BDRip.AVC.MediaClub
Библиотека кодирования : x264 core 130 r2273 b3065e6
Настройки программы : cabac=1 / ref=9 / deblock=1:-2:-2 / analyse=0x3:0x133 / me=umh / subme=11 / psy=1 / psy_rd=1.00:0.20 / mixed_ref=1 / me_range=32 / chroma_me=1 / trellis=2 / 8x8dct=1 / cqm=0 / deadzone=21,11 / fast_pskip=0 / chroma_qp_offset=-3 / threads=6 / lookahead_threads=1 / sliced_threads=0 / nr=0 / decimate=0 / interlaced=0 / bluray_compat=0 / constrained_intra=0 / bframes=8 / b_pyramid=2 / b_adapt=2 / b_bias=0 / direct=3 / weightb=1 / open_gop=0 / weightp=2 / keyint=240 / keyint_min=23 / scenecut=40 / intra_refresh=0 / rc=2pass / mbtree=0 / bitrate=3400 / ratetol=1.0 / qcomp=0.60 / qpmin=0 / qpmax=69 / qpstep=4 / cplxblur=20.0 / qblur=0.5 / ip_ratio=1.40 / pb_ratio=1.30 / aq=1:1.00
Язык : English
Default : Да
Forced : Нет

Аудио #1
Идентификатор : 2
Формат : AC-3
Формат/Информация : Audio Coding 3
Расширение режима : CM (complete main)
Параметр Endianness формата : Big
Идентификатор кодека : A_AC3
Продолжительность : 1 ч. 58 м.
Вид битрейта : Постоянный
Битрейт : 448 Кбит/сек
Каналы : 6 каналов
Расположение каналов : Front: L C R, Side: L R, LFE
Частота : 48,0 КГц
Битовая глубина : 16 бит
Метод сжатия : С потерями
Размер потока : 378 Мбайт (7%)
Заголовок : TRACK_01_DUB_RUS
Язык : Russian
Default : Нет
Forced : Нет

Аудио #2
Идентификатор : 3
Формат : AC-3
Формат/Информация : Audio Coding 3
Расширение режима : CM (complete main)
Параметр Endianness формата : Big
Идентификатор кодека : A_AC3
Продолжительность : 1 ч. 58 м.
Вид битрейта : Постоянный
Битрейт : 192 Кбит/сек
Каналы : 2 канала
Расположение каналов : Front: L R
Частота : 48,0 КГц
Битовая глубина : 16 бит
Метод сжатия : С потерями
Размер потока : 162 Мбайт (3%)
Заголовок : TRACK_02_MVO_RUS_Rossia
Язык : Russian
Default : Да
Forced : Нет

Аудио #3
Идентификатор : 4
Формат : AC-3
Формат/Информация : Audio Coding 3
Расширение режима : CM (complete main)
Параметр Endianness формата : Big
Идентификатор кодека : A_AC3
Продолжительность : 1 ч. 58 м.
Вид битрейта : Постоянный
Битрейт : 448 Кбит/сек
Каналы : 6 каналов
Расположение каналов : Front: L C R, Side: L R, LFE
Частота : 48,0 КГц
Битовая глубина : 16 бит
Метод сжатия : С потерями
Размер потока : 378 Мбайт (7%)
Заголовок : TRACK_03_AVO_RUS_Mihalev
Язык : Russian
Default : Нет
Forced : Нет

Аудио #4
Идентификатор : 5
Формат : AC-3
Формат/Информация : Audio Coding 3
Расширение режима : CM (complete main)
Параметр Endianness формата : Big
Идентификатор кодека : A_AC3
Продолжительность : 1 ч. 58 м.
Вид битрейта : Постоянный
Битрейт : 448 Кбит/сек
Каналы : 6 каналов
Расположение каналов : Front: L C R, Side: L R, LFE
Частота : 48,0 КГц
Битовая глубина : 16 бит
Метод сжатия : С потерями
Размер потока : 378 Мбайт (7%)
Заголовок : TRACK_04_AVO_RUS_Zhivov
Язык : Russian
Default : Нет
Forced : Нет

Аудио #5
Идентификатор : 6
Формат : AC-3
Формат/Информация : Audio Coding 3
Расширение режима : CM (complete main)
Параметр Endianness формата : Big
Идентификатор кодека : A_AC3
Продолжительность : 1 ч. 58 м.
Вид битрейта : Постоянный
Битрейт : 256 Кбит/сек
Каналы : 2 канала
Расположение каналов : Front: L R
Частота : 48,0 КГц
Битовая глубина : 16 бит
Метод сжатия : С потерями
Размер потока : 216 Мбайт (4%)
Заголовок : TRACK_05_AVO_RUS_Gorchakov
Язык : Russian
Default : Нет
Forced : Нет

Аудио #6
Идентификатор : 7
Формат : AC-3
Формат/Информация : Audio Coding 3
Расширение режима : CM (complete main)
Параметр Endianness формата : Big
Идентификатор кодека : A_AC3
Продолжительность : 1 ч. 58 м.
Вид битрейта : Постоянный
Битрейт : 384 Кбит/сек
Каналы : 6 каналов
Расположение каналов : Front: L C R, Side: L R, LFE
Частота : 48,0 КГц
Битовая глубина : 16 бит
Метод сжатия : С потерями
Размер потока : 324 Мбайт (6%)
Заголовок : TRACK_06_MVO_UKR_Novy
Язык : Ukrainian
Default : Нет
Forced : Нет

Аудио #7
Идентификатор : 8
Формат : AC-3
Формат/Информация : Audio Coding 3
Расширение режима : CM (complete main)
Параметр Endianness формата : Big
Идентификатор кодека : A_AC3
Продолжительность : 1 ч. 58 м.
Вид битрейта : Постоянный
Битрейт : 448 Кбит/сек
Каналы : 6 каналов
Расположение каналов : Front: L C R, Side: L R, LFE
Частота : 48,0 КГц
Битовая глубина : 16 бит
Метод сжатия : С потерями
Размер потока : 378 Мбайт (7%)
Заголовок : TRACK_07_ORIGINAL_ENG
Язык : English
Default : Нет
Forced : Нет

Текст #1
Идентификатор : 9
Формат : UTF-8
Идентификатор кодека : S_TEXT/UTF8
Идентификатор кодека/Информация : UTF-8 Plain Text
Заголовок : TEXT_01_SUB_RUS
Язык : Russian
Default : Нет
Forced : Нет

Текст #2
Идентификатор : 10
Формат : UTF-8
Идентификатор кодека : S_TEXT/UTF8
Идентификатор кодека/Информация : UTF-8 Plain Text
Заголовок : TEXT_02_SUB_ENG_SDH
Язык : English
Default : Нет
Forced : Нет

Меню
00:00:00.000 : en:Chapter 01
00:03:56.903 : en:Chapter 02
00:08:14.952 : en:Chapter 03
00:10:46.520 : en:Chapter 04
00:14:30.828 : en:Chapter 05
00:18:57.970 : en:Chapter 06
00:21:06.848 : en:Chapter 07
00:23:06.593 : en:Chapter 08
00:28:00.553 : en:Chapter 09
00:33:20.415 : en:Chapter 10
00:37:14.982 : en:Chapter 11
00:41:43.542 : en:Chapter 12
00:46:05.888 : en:Chapter 13
00:49:00.938 : en:Chapter 14
00:52:42.200 : en:Chapter 15
00:55:42.797 : en:Chapter 16
00:58:29.339 : en:Chapter 17
00:59:54.173 : en:Chapter 18
01:03:06.324 : en:Chapter 19
01:05:28.007 : en:Chapter 20
01:08:47.039 : en:Chapter 21
01:14:40.476 : en:Chapter 22
01:16:30.627 : en:Chapter 23
01:22:06.963 : en:Chapter 24
01:27:39.045 : en:Chapter 25
01:33:49.457 : en:Chapter 26
01:35:22.925 : en:Chapter 27
01:40:00.786 : en:Chapter 28
01:43:46.845 : en:Chapter 29
01:46:36.556 : en:Chapter 30
01:51:21.675 : en:Chapter 31
01:54:19.894 : en:Chapter 32
01:58:01.199 : en:Chapter 33
x264 [info]: frame I:1148 Avg QP:16.44 size: 76258
x264 [info]: frame P:34605 Avg QP:18.99 size: 32819
x264 [info]: frame B:134032 Avg QP:20.42 size: 13329
Сохранены оригинальные чаптеры как на Blu-ray.

За помощь в подготовке релиза спасибо Константину - Painter
За постер спасибо Вадиму - V_ad от Media-Art-Club

За исходник спасибо HDClub
За украинскую дорогу спасибо трекеру Hurtom
Релиз от:

Автор рипа:



Скачать Иствикские.ведьмы.The.Witches.of.Eastwick.(Джордж.Миллер).[1987.ужасы.триллер.фэнтези.комедия.музыка.BDRip-AVC].[Dub]+[MVO]x2+[AVO]x3+[Оригинал]+[Sub].torrent без регистрации
Золото ЗОЛОТАЯ РАЗДАЧА! СКАЧАННОЕ НЕ ЗАСЧИТЫВАЕТСЯ! Золото
Дата: Зарегистрирован   [ Тип: внутренний ] Как тут cкачать?
MAGNET ссылка
MAGNET ссылка


Скачать .torrent

25 KB

Статус: проверено DHT
Скачан: торрент - 95 раз, раздача полностью - 2 раз
Размер: 4,97 GB
Оценка:  - (Голосов: 0)
Поблагодарили: 1
Поделиться ссылкой на эту раздачу с друзьями:
В контактеFacebookОдноклассникиTwitterLivejournalМой МирLiveinternet
 

 
Показать сообщения:    


Вы не можете начинать темы
Вы не можете отвечать на сообщения
Вы не можете редактировать свои сообщения
Вы не можете удалять свои сообщения
Вы не можете голосовать в опросах
Вы не можете прикреплять файлы к сообщениям
Вы можете скачивать файлы